ML
     
  Уважаемый Гость!
Вы можете поддержать проект и зарегистрироваться у наших партнеров - онлайн-стратегия MyLands. При регистрации в игре Вы получите код, который сможете активировать после регистрации на pirat.ca и получить 1000 дублонов.

Ваш код:
fe4e93b754a7c2b306fcfc8bc32532ea1cf59d3b
 
     

Коралина в Стране Кошмаров / Coraline (Генри Селик / Henry Selick) [2009 г., Фэнтези, драма, приключения, семейный, мультфильм, HDRip] Dub [Пифагор 2009 / Лицензия]

Ответить на тему
 
Автор
Сообщение

Пост 25-Май-2016 00:28

[Q] 

somik

Легенда

-Коралина в Стране Кошмаров / Coraline-- Производство: США, Laika Entertainment, Pandemonium, ...
Год выпуска: 2009 г.
Жанр: Фэнтези, драма, приключения, семейный, мультфильм
Продолжительность: 01:40:36
Мировая премьера: 5 февраля 2009
Российская премьера: 30 апреля 2009, «UPI»
Дата выхода DVD: 28 июля 2009, «Юниверсал Пикчерс Рус»
Дата выхода Blu-Ray: 14 июня 2011, «Юниверсал Пикчерс Рус»
Перевод: Профессиональный (полное дублирование) [Пифагор 2009 / Лицензия]
Режиссер: Генри Селик / Henry Selick-В ролях: Дакота Фаннинг, Тери Хэтчер, Дженнифер Сoндерс, Доун Френч, Кит Дэвид, Джон Гудман, Роберт Бэйли мл., Йен МакШейн и др.
Роли дублировали: Анна Штукатурова, Владимир Зайцев, Елена Соловьева, Елена Бушуева, Людмила Гнилова, ...-Описание: Коралина, маленькая девочка попадает в другой мир, скрытый за секретной дверцей. Этот мир — ее альтернативная жизнь, которая не перестает ее радовать, все здесь хорошо, но до поры до времени. Однажды, она понимает что ее настоящим родителям за ее проделки угрожает смертельная опасность. Коралине придется найти выход из мира наполненного призраками в реальную жизнь…-
Качество видео: HDRip
Контейнер: AVI
Видео кодек: XviD
Аудио кодек: MP3
Видео: 704x384 (1.83:1), 23.976 fps, XviD build 47 ~904 kbps avg, 0.14 bit/pixel
Аудио: 48 kHz, MPEG Layer 3, 2 ch, ~128.00 kbps avg
Cубтитры: отсутствуют
Фильм снят по мотивам детской повести Нила Геймана «Коралина» (Coraline, 2002).
Съёмки фильма были организованы в помещении порядка 13 тыс. квадратных метров.
В фильме отец Коралины обут в комнатные тапочки Monkeybone. «Обезьянья кость» (Monkeybone) — фильм, снятый Генри Селиком.
Оскар, 2010 год
Номинации (1):
Лучший анимационный фильм
Золотой глобус, 2010 год
Номинации (1):
Лучший анимационный фильм
Британская академия, 2010 год
Номинации (1):
Лучший анимационный фильм
Жорж, 2010 год
Номинации (1):
Лучший анимационный фильм
Сатурн, 2010 год
Номинации (1):
Лучший анимационный фильм
«Мультфильм ужасов»
«Коралина в Стране Кошмаров» — сказка, которая переплела в себе все лучшее, что мог ей дать мастер своего дела Генри Селик.
Смотрела на одном дыхании.
Начнём с картинки: графика ай да хороша! весь м-фильм я восхощалась этой волшебной тектурой предметов, сложностью схем и красотой воссозданной из воображения мультипликаторов.
Сюжет: Девочка со своими постоянно занятыми трудоголиками-родителями переезжает в новый дом, где находит за обоями маленькую, а главное ЗАКРЫТУЮ дверь (всё, что неведомо-привлекает, так и подумала наша героиня), и вскоре, после открытия окунается в мир грёз. Там всё тоже самое — дом, мама, папа, НО — это все идеально! Мама научилась готовить, папа копается в саду! Единственная странность — их глаза это — «ппп-ппп-пуговки!». И теперь Каролине приходится делать выбор между своим домом и новообретённым. Но сможет ли она сделать правельный выбор, а главное — вовремя? — фильм покажет:)
Так как я ожидала заурядного мультфильма для детей изсредней группы садика — для меня было просто открытием то, что мультфильм то совсем не для малолеток. На самом деле в нём бесспорно есть что то завораживающее разум. Я бы без каких либо колебаний отнесла данный сюжет к жанру ужасов, мистики.
О, эти цирковые миши! Я влюблена в них!
Каждый герой просто наполнен всплеском эмоций и может рассматриваться психологом с большим удовольствием.
Музыкальное сопровождение: Овации!!! Друзья, овации!!Хотя бы ради такой замечательной музики всё таки стоит усесться по-удобнее и начать просмотр. Изумительно приятные саунд-треки искусно подобранные к месту.
Смело называю Генри Селика гением, а мультфильм — шедевром.
10 из 10
Формат : AVI
Формат/Информация : Audio Video Interleave
Размер файла : 749 Мбайт
Продолжительность : 1 ч. 40 м.
Общий поток : 1042 Кбит/сек
Название фильма : Coraline.2009.[pirat.ca]
Программа кодирования : VirtualDubMod 1.5.10.2 (build 2540/release)
Видео
Идентификатор : 0
Формат : MPEG-4 Visual
Профиль формата : Advanced [email protected]
Параметр BVOP формата : 1
Параметр QPel формата : Нет
Параметр GMC формата : Без точки перехода
Параметр матрицы формата : Default (MPEG)
Идентификатор кодека : XVID
Идентификатор кодека/Подсказка : XviD
Продолжительность : 1 ч. 40 м.
Битрейт : 904 Кбит/сек
Ширина : 704 пикселя
Высота : 384 пикселя
Соотношение сторон : 1,85:1
Частота кадров : 23,976 (23976/1000) кадра/сек
Цветовое пространство : YUV
Субдискретизация насыщенности : 4:2:0
Битовая глубина : 8 бит
Тип развёртки : Прогрессивная
Метод сжатия : С потерями
Бит/(Пиксели*Кадры) : 0.140
Размер потока : 651 Мбайт (87%)
Библиотека кодирования : XviD 1.2.0.dev47 (UTC 2006-11-01)
Аудио
Идентификатор : 1
Формат : MPEG Audio
Версия формата : Version 1
Профиль формата : Layer 3
Идентификатор кодека : 55
Идентификатор кодека/Подсказка : MP3
Продолжительность : 1 ч. 40 м.
Вид битрейта : Постоянный
Битрейт : 128 Кбит/сек
Каналы : 2 канала
Частота : 48,0 КГц
Метод сжатия : С потерями
Размер потока : 92,1 Мбайт (12%)
Выравнивание : Соединение по промежуткам
Продолжительность промежутка : 42 мс. (1,00 видеокадр)
Время предзагрузки промежутка : 504 мс.
Библиотека кодирования : LAME3.97
Настройки программы : -m s -V 4 -q 2 -lowpass 17 -b 128
Download / Скачать

Хотите скачать бесплатно? Зарегистрируйтесь на сайте (ссылка на регистрацию). Pirat.ca - самый быстрый торрент трекер в рунете!

Как скачивать  ·   Что такое торрент  ·   Рейтинг и ограничения

Пост 25-Май-2016 00:33 (спустя 5 минут)

Топик был перенесен из форума Зарубежное Кино (Трюм) в форум Зарубежные полнометражные мультфильмы
Андря
 
Показать сообщения:    
Ответить на тему

Текущее время: Сегодня 14:27

Часовой пояс: GMT + 4



Вы не можете начинать темы
Вы не можете отвечать на сообщения
Вы не можете редактировать свои сообщения
Вы не можете удалять свои сообщения
Вы не можете голосовать в опросах
Вы не можете прикреплять файлы к сообщениям
Вы не можете скачивать файлы

▼ Вниз