ML
     
  Уважаемый Гость!
Вы можете поддержать проект и зарегистрироваться у наших партнеров - онлайн-стратегия MyLands. При регистрации в игре Вы получите код, который сможете активировать после регистрации на pirat.ca и получить 1000 дублонов.

Ваш код:
5af7de75d3db09b6a37bc8bab71b0e87ccde73d6
 
     

Аида из Арбореи / Aida degli alberi (Гвидо Манули / Guido Manuli) [2001 г., мультфильм, фэнтези, мюзикл, семейный, DVDRip] MVO

Ответить на тему
 
Автор
Сообщение

Пост 27-Май-2016 19:48

[Q] 

somik

Легенда

-Аида из Арбореи / Aida degli alberi-- Производство: Италия, Великобритания, Lanterna Magica
Год выпуска: 2001 г.
Жанр: мультфильм, фэнтези, мюзикл, семейный
Продолжительность: 01:12:25
Мировая премьера: 21 декабря 2001
Дата выхода DVD: 22 марта 2007, «Союз-Видео»
Перевод: Профессиональный (многоголосый, закадровый)
Режиссер: Гвидо Манули / Guido Manuli-В ролях: Vittorio Bestoso, Массимо Битосси, Симона Д’Андреа, Иво Де Пальма, Мишель Ди Мауро, Роберта Лоуренти, Gianni Gaude, Энцо Лаччетти, Чиро Импарато, Джино Лана
...-Описание: Волшебный мир разделился пополам. Злобный каменный дракон Сатам и его преспешники из города Петра объявили войну мирному древесному народу Арбореи. Прекрасная принцесса Аида, дочь арборейского короля, была похищена и стала служанкой во дворце петранцев. Там она познакомилась с Радамесом - солдатом Петры. Радамес и Аида полюбили друг друга и теперь эта ужасная война может разделить их. Сможет ли любовь и верная дружба вернуть мир в волшебную страну?-
Качество видео: DVDRip
Контейнер: AVI
Видео кодек: XviD
Аудио кодек: MP3
Видео: 640x352 (1.82:1), 25 fps, XviD build 47 ~1216 kbps avg, 0.22 bit/pixel
Аудио: 48 kHz, MPEG Layer 3, 2 ch, ~128.00 kbps avg
Cубтитры: отсутствуют
Мультфильм зачётный, но не более того. Пишу положительную рецензию в основном потому, что он всё-таки приятно бросается в глаза на общем фоне мультипликационной индустрии, богатой однотипными сюжетами и персонажами-клише.
Здесь клишеобразность не выпирает, но всё-таки очевидна. Хотя действие происходит в параллельном мире (то ли постапокалиптическом, то ли допотопном), сюжет довольно знаком и архетипен: принц и принцесса враждебных кланов полюбили друг друга и принесли мир своим народам. Увы, со времён домов Монтекки и Капулетти эта схема была многократно затёрта в громадной веренице книг, фильмов и мультфильмов. Злобный правитель Петры — типичный главный злодей. Он просто злой и всё. Этим его личность и исчерпывается. В Аиде угадывается принцесса Мононоке (впрочем, возможно, авторы мультфильма обошлись без влияния Миядзаки, ибо образ красивой и вольнолюбивой дикарки в культуре давно не нов). Ну и, конечно, наивный толстяк — тугоумный, неповоротливый, нескладный — типичный комичный персонаж.
Стоит подметить и сильные стороны: диалоги, мимика героев, многие выразительные средства отличаются от мультфильм от привычных широкому зрителю лент американского кинематографа. На лицо нарождающийся мейнстрим итальянской анимации, пока ещё далеко не зрелый, но пытающийся с переменным успехом нащупать свой самобытный путь. Поэтому в качестве поощрения:
8,5 из 10
Формат : AVI
Формат/Информация : Audio Video Interleave
Размер файла : 701 Мбайт
Продолжительность : 1 ч. 12 м.
Общий поток : 1354 Кбит/сек
Название фильма : Aida.iz.Arborei.2001.DVDRip.[pirat.ca]
Программа кодирования : VirtualDubMod 1.5.10.2 (build 2540/release)
Видео
Идентификатор : 0
Формат : MPEG-4 Visual
Профиль формата : Advanced [email protected]
Параметр BVOP формата : 1
Параметр QPel формата : Нет
Параметр GMC формата : Без точки перехода
Параметр матрицы формата : Default (MPEG)
Идентификатор кодека : XVID
Идентификатор кодека/Подсказка : XviD
Продолжительность : 1 ч. 12 м.
Битрейт : 1216 Кбит/сек
Ширина : 640 пикселей
Высота : 352 пикселя
Соотношение сторон : 16:9
Частота кадров : 25,000 кадров/сек
Цветовое пространство : YUV
Субдискретизация насыщенности : 4:2:0
Битовая глубина : 8 бит
Тип развёртки : Прогрессивная
Метод сжатия : С потерями
Бит/(Пиксели*Кадры) : 0.216
Размер потока : 630 Мбайт (90%)
Библиотека кодирования : XviD 1.2.0.dev47 (UTC 2006-11-01)
Аудио
Идентификатор : 1
Формат : MPEG Audio
Версия формата : Version 1
Профиль формата : Layer 3
Идентификатор кодека : 55
Идентификатор кодека/Подсказка : MP3
Продолжительность : 1 ч. 12 м.
Вид битрейта : Постоянный
Битрейт : 128 Кбит/сек
Каналы : 2 канала
Частота : 48,0 КГц
Метод сжатия : С потерями
Размер потока : 66,3 Мбайт (9%)
Выравнивание : Соединение по промежуткам
Продолжительность промежутка : 40 мс. (1,00 видеокадр)
Время предзагрузки промежутка : 504 мс.
Библиотека кодирования : LAME3.97
Настройки программы : -m s -V 4 -q 2 -lowpass 17 -b 128
Download / Скачать

Хотите скачать бесплатно? Зарегистрируйтесь на сайте (ссылка на регистрацию). Pirat.ca - самый быстрый торрент трекер в рунете!

Как скачивать  ·   Что такое торрент  ·   Рейтинг и ограничения

somik ®

Легенда

26788

Пост 28-Май-2016 20:01 (спустя 1 день)

[Q] 

Внимание взрослых! Это детский мультик, и детей не интересуют взрослые рейтинги! aa

_________________
Всё когда-нибудь уже было... В интернете!
[Профиль]  [ЛС] 

Пост 28-Май-2016 22:45 (спустя 2 часа 43 минуты)

Топик был перенесен из форума Зарубежное Кино (Трюм) в форум Зарубежные полнометражные мультфильмы
Андря
 

KoNiaL_KCC

Гроза морей

Пост 28-Авг-2016 18:00 (спустя 2 месяца 30 дней)

[Q] 

эх, ещё кто нибудь раздал бы его SOS!!!
Добавлено спустя 54 секунды:
"Полного источника не было: 7 дней"
[Профиль]  [ЛС] 
Показать сообщения:    
Ответить на тему

Текущее время: Сегодня 14:12

Часовой пояс: GMT + 4



Вы не можете начинать темы
Вы не можете отвечать на сообщения
Вы не можете редактировать свои сообщения
Вы не можете удалять свои сообщения
Вы не можете голосовать в опросах
Вы не можете прикреплять файлы к сообщениям
Вы не можете скачивать файлы

▼ Вниз