ML
     
  Уважаемый Гость!
Вы можете поддержать проект и зарегистрироваться у наших партнеров - онлайн-стратегия MyLands. При регистрации в игре Вы получите код, который сможете активировать после регистрации на pirat.ca и получить 1000 дублонов.

Ваш код:
11f49771fdf057c9d51610e4a0925c3b46ddb655
 
     

Робинзон Крузо: Очень обитаемый остров / Robinson Crusoe (Винсент Кестелут / Vincent Kesteloot) [2016 г., мультфильм, комедия, приключения, WEB-DLRip] Dub [iTunes]

Ответить на тему
 
Автор
Сообщение

Пост 02-Июн-2016 04:35

[Q] 

somik

Легенда

-Робинзон Крузо: Очень обитаемый остров / Robinson Crusoe-- Производство: Франция, Бельгия, nWave Pictures, Studio Canal, uFilm
Год выпуска: 2016 г.
Жанр: мультфильм, комедия, приключения
Продолжительность: 01:30:23
Мировая премьера: 4 февраля 2016
Российская премьера: 14 апреля 2016, «Вольга»
Перевод: Профессиональный (полное дублирование) [iTunes]
Режиссер: Винсент Кестелут / Vincent Kesteloot-В ролях: Рон Аллен, Джордж Бэббит, Лайла Берзиньш, Илька Бессин, Джои Камен, Джефф Дусетте, Джефф Дусетте, Сэнди Фокс, Дитер Халлерворден, Кайл Херберт-Описание: Все знают историю о Робинзоне Крузо, попавшем на необитаемый остров. Однако, как же можно назвать его необитаемым, если он населен разнообразными веселыми животными и птицами? Они очень удивились, впервые встретив это странное существо, и даже приняли его за морское чудовище. Попугаю по кличке Вторник и его друзьям — хамелеону, тапиру и другим обитателям острова предстоит поближе познакомиться с незнакомым зверем «человеком» и вместе с ним пережить массу опасных и веселых приключений.-
Качество видео: WEB-DLRip
Контейнер: AVI
Видео кодек: XviD
Аудио кодек: AC3
Видео: 720x304 (2.37:1), 24 fps, XviD build 50 ~1771 kbps avg, 0.34 bit/pixel
Аудио: 48 kHz, AC3 Dolby Digital, 3/2 (L,C,R,l,r) + LFE ch, ~384 kbps
Cубтитры: отсутствуют
Робинзон Крузо и очень недоверчивые животные.
Мультфильм начинается своего рода с конца. Нам сразу показывают события, которые произойдут. Далее следуют флеш-беки, в которых нас знакомят с героем и с его историей.
Мультфильм очень яркий и красочный. Он живой. Каждый кадр детально продуман и хорошо прорисован. Линия каждого персонажа видна хорошо. Каждое животное с острова имеет свой особенный и индивидуальный характер, они имеют свои вкусы и.. . конечно же у каждого разная степень доверия к нашему главному герою — Робинзону Крузо.
Когда сюжет захватывает нас с головой, не могу не отметить своего рода «операторскую работу», некоторые сцены были настолько хорошо и красиво сделаны, что казалось, что это всё «снято» одним кадром. Особенно порадовала сцена «резкий спуск вниз через препятствия», я думаю каждый зритель поймёт, потому что этот отрезок действительно сделали очень качественно.
Робинзон Крузо — молодой мужчина, картограф, который попал в шторм и очутился на необитаемом острове. По началу он не знает, кто его обитатели и довольно-таки сильно их боится. Собственно, как и жители острова бояться его. Далее следует развитие сюжета, который с удовольствием затянет с головой в гущу событий. Наш герой всегда имеет благородный вид, даже когда зарастёт бородой, всё равно остаётся симпатия к Робинзону Крузо. В каких-то местах он возможно неряшлив, неуклюж, но у него доброе сердце и он готов помогать всему миру.
Главным другом нашего героя становится попугай по имени Вторник, который всеми силами пытался найти ответ на главный вопрос: А что же там, дальше за океаном… Вторник был самым доверчивым среди всех обитателей и с лёгкостью подружился с Робинзоном. А тот в свою очередь показывал ему, какой мир на самом деле существует за пределами острова.
Не обошлось и без капли «зла» в мультфильме. Как мы уже привыкли, практически в каждом поучительном мультфильме должен быть баланс и борьба между бодром и злом. Но вынуждена признать, что лично для меня — зло показано не совсем корректно. По сути две кошки виноваты были лишь в том, что хотели кушать, природа брала над ними вверх и им приходилось идти на хитрость, чтобы не умереть с голода. Особенно потом, когда они создали настоящую семью на острове.
В целом мультфильм очень хороший. Для семейного просмотра годиться на все 100%. Единственное, что я бы обязательно раскрыла детям сущность таких домашних животных, как кошка. Чтобы маленький зритель после просмотра данного мультфильма не имел негативного отношения к животному.
7 из 10
Формат : AVI
Формат/Информация : Audio Video Interleave
Размер файла : 1,37 Гбайт
Продолжительность : 1 ч. 30 м.
Общий поток : 2165 Кбит/сек
Название фильма : Robinzon Kruzo.2016.D.WEB-DLRip.[pirat.ca]
Программа кодирования : VirtualDubMod 1.5.10.2 (build 2540/release)
Видео
Идентификатор : 0
Формат : MPEG-4 Visual
Профиль формата : Advanced [email protected]
Параметр BVOP формата : 2
Параметр QPel формата : Нет
Параметр GMC формата : Без точки перехода
Параметр матрицы формата : Default (MPEG)
Идентификатор кодека : XVID
Идентификатор кодека/Подсказка : XviD
Продолжительность : 1 ч. 30 м.
Битрейт : 1772 Кбит/сек
Ширина : 720 пикселей
Высота : 304 пикселя
Соотношение сторон : 2,35:1
Частота кадров : 24,000 кадра/сек
Цветовое пространство : YUV
Субдискретизация насыщенности : 4:2:0
Битовая глубина : 8 бит
Тип развёртки : Прогрессивная
Метод сжатия : С потерями
Бит/(Пиксели*Кадры) : 0.337
Размер потока : 1,12 Гбайт (82%)
Библиотека кодирования : XviD 1.2.1 (UTC 2008-12-04)
Аудио
Идентификатор : 1
Формат : AC-3
Формат/Информация : Audio Coding 3
Расширение режима : CM (complete main)
Параметр Endianness формата : Big
Идентификатор кодека : 2000
Продолжительность : 1 ч. 30 м.
Вид битрейта : Постоянный
Битрейт : 384 Кбит/сек
Каналы : 6 каналов
Расположение каналов : Front: L C R, Side: L R, LFE
Частота : 48,0 КГц
Частота кадров : 31,250 кадров/сек (1536 spf)
Метод сжатия : С потерями
Размер потока : 248 Мбайт (18%)
Выравнивание : Разделение по промежуткам
Продолжительность промежутка : 42 мс. (1,00 видеокадр)
Время предзагрузки промежутка : 500 мс.
Download / Скачать

Хотите скачать бесплатно? Зарегистрируйтесь на сайте (ссылка на регистрацию). Pirat.ca - самый быстрый торрент трекер в рунете!

Как скачивать  ·   Что такое торрент  ·   Рейтинг и ограничения

Пост 02-Июн-2016 09:49 (спустя 5 часов)

Топик был перенесен из форума Зарубежное Кино (Трюм) в форум Новинки (HD|DVD|BD| TV|SAT|PDTV| - Rips)
Андря
 

Пост 08-Июл-2016 20:13 (спустя 1 месяц 6 дней)

Топик был перенесен из форума Новинки (HD|DVD|BD| TV|SAT|PDTV| - Rips) в форум Зарубежные полнометражные мультфильмы
aleksey99
 
Показать сообщения:    
Ответить на тему

Текущее время: Сегодня 03:09

Часовой пояс: GMT + 4



Вы не можете начинать темы
Вы не можете отвечать на сообщения
Вы не можете редактировать свои сообщения
Вы не можете удалять свои сообщения
Вы не можете голосовать в опросах
Вы не можете прикреплять файлы к сообщениям
Вы не можете скачивать файлы

▼ Вниз