ML
     
  Уважаемый Гость!
Вы можете поддержать проект и зарегистрироваться у наших партнеров - онлайн-стратегия MyLands. При регистрации в игре Вы получите код, который сможете активировать после регистрации на pirat.ca и получить 1000 дублонов.

Ваш код:
ba41f7961e0b4717aed6a401d955262223b8f6c4
 
     

Рэтчет и Кланк: Галактические рейнджеры / Ratchet & Clank (Кевин Манро / Kevin Munroe) [2016 г., мультфильм, фантастика, боевик, комедия, приключения, WEB-DLRip] Dub [iTunes]

Ответить на тему
 
Автор
Сообщение

Пост 02-Июн-2016 05:21

[Q] 

somik

Легенда

-Рэтчет и Кланк: Галактические рейнджеры / Ratchet & Clank-- Производство: Гонконг, Канада, США, Aperture Media Partners, Blockade Entertainment, CNHK Media, ...
Режиссер: Кевин Манро / Kevin Munroe
Жанр: мультфильм, фантастика, боевик, комедия, приключения
Год выпуска: 2016 г.
Продолжительность: 01:33:51
Мировая премьера: 13 апреля 2016
Российская премьера: 5 мая 2016, «Централ Партнершип»
Перевод: Профессиональный (полное дублирование) [iTunes]
Роли озвучивали: Джеймс Арнольд Тейлор, Дэвид Кэй, Джим Уорд, Don Briggs, Йен Джеймс Корлетт, Эндрю Каунден, Розарио Доусон, Брайан Добсон, Брайан Драммонд, Пол Джаматти-Описание: Большеухий ловкач Рэтчет всегда мечтал присоединиться к Галактическим космическим рейнджерам, но самовлюбленный супергерой Капитан Кварк не принимает его в команду. И все же, когда робот Кланк приносит весть о коварном плане злодея Дрека из расы Блэрг создать новую планету для своего вида, предварительно избавившись от рейнджеров и уничтожив Солнечную систему, миссия по спасению галактики ложится именно на пушистые плечи остряка Рэтчета. А металлический Кланк становится его верным спутником и помощником.-IMDB КиноПоиск
Качество видео: WEB-DLRip
Контейнер: AVI
Видео кодек: XviD
Аудио кодек: AC3
Видео: 720x304 (2.37:1), 24 fps, XviD build 50 ~1691 kbps avg, 0.32 bit/pixel
Аудио: 48 kHz, AC3 Dolby Digital, 3/2 (L,C,R,l,r) + LFE ch, ~384 kbps
Cубтитры: отсутствуют
Формат : AVI
Формат/Информация : Audio Video Interleave
Размер файла : 1,37 Гбайт
Продолжительность : 1 ч. 33 м.
Общий поток : 2085 Кбит/сек
Название фильма : Ratchet & Clank.2016.D.WEB-DL.Rip.[pirat.ca]
Программа кодирования : VirtualDubMod 1.5.10.2 (build 2540/release)
Видео
Идентификатор : 0
Формат : MPEG-4 Visual
Профиль формата : Advanced [email protected]
Параметр BVOP формата : 2
Параметр QPel формата : Нет
Параметр GMC формата : Без точки перехода
Параметр матрицы формата : Default (MPEG)
Идентификатор кодека : XVID
Идентификатор кодека/Подсказка : XviD
Продолжительность : 1 ч. 33 м.
Битрейт : 1692 Кбит/сек
Ширина : 720 пикселей
Высота : 304 пикселя
Соотношение сторон : 2,35:1
Частота кадров : 24,000 кадра/сек
Цветовое пространство : YUV
Субдискретизация насыщенности : 4:2:0
Битовая глубина : 8 бит
Тип развёртки : Прогрессивная
Метод сжатия : С потерями
Бит/(Пиксели*Кадры) : 0.322
Размер потока : 1,11 Гбайт (81%)
Библиотека кодирования : XviD 1.2.1 (UTC 2008-12-04)
Аудио
Идентификатор : 1
Формат : AC-3
Формат/Информация : Audio Coding 3
Расширение режима : CM (complete main)
Параметр Endianness формата : Big
Идентификатор кодека : 2000
Продолжительность : 1 ч. 33 м.
Вид битрейта : Постоянный
Битрейт : 384 Кбит/сек
Каналы : 6 каналов
Расположение каналов : Front: L C R, Side: L R, LFE
Частота : 48,0 КГц
Частота кадров : 31,250 кадров/сек (1536 spf)
Метод сжатия : С потерями
Размер потока : 258 Мбайт (18%)
Выравнивание : Разделение по промежуткам
Продолжительность промежутка : 42 мс. (1,00 видеокадр)
Время предзагрузки промежутка : 500 мс.
Download / Скачать

Хотите скачать бесплатно? Зарегистрируйтесь на сайте (ссылка на регистрацию). Pirat.ca - самый быстрый торрент трекер в рунете!

Как скачивать  ·   Что такое торрент  ·   Рейтинг и ограничения

Пост 05-Июн-2016 03:39 (спустя 2 дня 22 часа)

Топик был перенесен из форума Мультфильмы (Трюм) в форум Новинки (HD|DVD|BD| TV|SAT|PDTV| - Rips)
Андря
 

Пост 08-Июл-2016 20:14 (спустя 1 месяц 6 дней)

Топик был перенесен из форума Новинки (HD|DVD|BD| TV|SAT|PDTV| - Rips) в форум Зарубежные полнометражные мультфильмы
aleksey99
 

Madwarg

Шкипер

Пост 11-Авг-2016 22:40 (спустя 2 месяца 9 дней)

[Q] 

Спасибо Лови бочку

_________________
Я не Шкипер, я Морской волк! Просто немногословный... ;)
[Профиль]  [ЛС] 
Показать сообщения:    
Ответить на тему

Текущее время: Сегодня 14:49

Часовой пояс: GMT + 4



Вы не можете начинать темы
Вы не можете отвечать на сообщения
Вы не можете редактировать свои сообщения
Вы не можете удалять свои сообщения
Вы не можете голосовать в опросах
Вы не можете прикреплять файлы к сообщениям
Вы не можете скачивать файлы

▼ Вниз