ML
     
  Уважаемый Гость!
Вы можете поддержать проект и зарегистрироваться у наших партнеров - онлайн-стратегия MyLands. При регистрации в игре Вы получите код, который сможете активировать после регистрации на pirat.ca и получить 1000 дублонов.

Ваш код:
a01a592a88af5f9996a6d1baec61b18a1769954d
 
     

Робинзон Крузо: Очень обитаемый остров / Robinson Crusoe (Винсент Кестелут / Vincent Kesteloot) [2016 г., мультфильм, комедия, приключения, WEB-DLRip-AVC] Dub [iTunes]

Ответить на тему
 
Автор
Сообщение

Пост 02-Июн-2016 19:49

[Q] 

aleksey99

--Робинзон Крузо: Очень обитаемый остров / Robinson Crusoe--«Однажды на берег очень даже обитаемого острова...»-- Производство: Франция, Бельгия, nWave Pictures, Studio Canal, uFilm
Год выпуска: 2016 г.
Жанр: мультфильм, комедия, приключения
Продолжительность: 01:30:23--Мировая премьера: 4 февраля 2016
Российская премьера: 14 апреля 2016, «Вольга»--Перевод: Профессиональный (полное дублирование) [iTunes]--Режиссер: Винсент Кестелут / Vincent Kesteloot--В ролях: Рон Аллен, Джордж Бэббит, Лайла Берзиньш, Илька Бессин, Джои Камен, Джефф Дусетте, Сэнди Фокс, Дитер Халлерворден, Кайл Херберт--Описание: Все знают историю о Робинзоне Крузо, попавшем на необитаемый остров. Однако, как же можно назвать его необитаемым, если он населен разнообразными веселыми животными и птицами? Они очень удивились, впервые встретив это странное существо, и даже приняли его за морское чудовище. Попугаю по кличке Вторник и его друзьям — хамелеону, тапиру и другим обитателям острова предстоит поближе познакомиться с незнакомым зверем «человеком» и вместе с ним пережить массу опасных и веселых приключений.-- --Качество видео: WEB-DLRip-AVC
Контейнер: MKV
Видео кодек: H.264
Аудио кодек: AC3
Видео: AVC at 2500 Кбит/сек, 1024X432 at 24.000 fps
Аудио: 48 kHz, AC3 Dolby Digital, 3/2 (L,C,R,l,r) + LFE ch, ~384 kbps
Cубтитры: отсутствуют
Общее
Уникальный идентификатор : 246601722129937875262495329748732104816 (0xB985C39BF9C9883DA18CF5EB26145070)
Полное имя : H:\Torrent2\KruZZoo.2O16.WEB-DLRip-AVC.mkv
Формат : Matroska
Версия формата : Version 4 / Version 2
Размер файла : 1,82 Гбайт
Продолжительность : 1 ч. 30 м.
Общий поток : 2884 Кбит/сек
Дата кодирования : UTC 2016-06-02 13:49:07
Программа кодирования : mkvmerge v8.2.0 ('World of Adventure') 64bit
Библиотека кодирования : libebml v1.3.1 + libmatroska v1.4.2 / Lavf57.25.100
ENCODING_INFO : MATROSKA,WEBM > MKV / H264 > X264 VBR-2P 2500kbps Произвольный
Видео
Идентификатор : 1
Формат : AVC
Формат/Информация : Advanced Video Codec
Профиль формата : [email protected]
Параметр CABAC формата : Да
Параметр ReFrames формата : 8 кадров
Идентификатор кодека : V_MPEG4/ISO/AVC
Продолжительность : 1 ч. 30 м.
Битрейт : 2500 Кбит/сек
Ширина : 1024 пикселя
Высота : 432 пикселя
Соотношение сторон : 2,40:1
Соотношение сторон в оригинале : 2,40:1
Режим частоты кадров : Постоянный
Частота кадров : 24,000 кадра/сек
Цветовое пространство : YUV
Субдискретизация насыщенности : 4:2:0
Битовая глубина : 8 бит
Тип развёртки : Прогрессивная
Бит/(Пиксели*Кадры) : 0.235
Размер потока : 1,58 Гбайт (87%)
Библиотека кодирования : x264 core 148 r2694M 3b70645
Настройки программы : cabac=1 / ref=8 / deblock=1:-3:-3 / analyse=0x3:0x133 / me=umh / subme=8 / psy=1 / psy_rd=1.00:0.20 / mixed_ref=1 / me_range=16 / chroma_me=1 / trellis=2 / 8x8dct=1 / cqm=0 / deadzone=21,11 / fast_pskip=1 / chroma_qp_offset=-3 / threads=9 / lookahead_threads=3 / sliced_threads=0 / nr=0 / decimate=1 / interlaced=0 / bluray_compat=0 / constrained_intra=0 / bframes=8 / b_pyramid=2 / b_adapt=2 / b_bias=0 / direct=3 / weightb=1 / open_gop=0 / weightp=2 / keyint=240 / keyint_min=24 / scenecut=40 / intra_refresh=0 / rc_lookahead=40 / rc=2pass / mbtree=1 / bitrate=2500 / ratetol=1.0 / qcomp=0.60 / qpmin=1 / qpmax=69 / qpstep=4 / cplxblur=20.0 / qblur=0.5 / ip_ratio=1.40 / aq=1:1.00
Язык : English
Default : Да
Forced : Нет
Цветовой диапазон : Limited
Основные цвета : BT.709
Характеристики трансфера : BT.709
Коэффициенты матрицы : BT.709
Аудио
Идентификатор : 2
Формат : AC-3
Формат/Информация : Audio Coding 3
Расширение режима : CM (complete main)
Параметр Endianness формата : Big
Идентификатор кодека : A_AC3
Продолжительность : 1 ч. 30 м.
Вид битрейта : Постоянный
Битрейт : 384 Кбит/сек
Каналы : 6 каналов
Расположение каналов : Front: L C R, Side: L R, LFE
Частота : 48,0 КГц
Частота кадров : 31,250 кадров/сек (1536 spf)
Метод сжатия : С потерями
Размер потока : 248 Мбайт (13%)
Язык : Russian
Default : Да
Forced : Нет
Меню
00:00:00.000 : :Глава 1
00:05:18.041 : :Глава 2
00:11:16.832 : :Глава 3
00:17:07.832 : :Глава 4
00:23:10.040 : :Глава 5
00:28:55.081 : :Глава 6
00:35:05.246 : :Глава 7
00:40:42.997 : :Глава 8
00:46:33.247 : :Глава 9
00:52:50.663 : :Глава 10
00:59:08.288 : :Глава 11
01:04:25.829 : :Глава 12
01:09:32.537 : :Глава 13
01:15:14.537 : :Глава 14
01:21:30.078 : :Глава 15
Трейлер
Download / Скачать

Хотите скачать бесплатно? Зарегистрируйтесь на сайте (ссылка на регистрацию). Pirat.ca - самый быстрый торрент трекер в рунете!

Как скачивать  ·   Что такое торрент  ·   Рейтинг и ограничения

bolin

Флибустьер

Пост 02-Июн-2016 20:26 (спустя 36 минут)

[Q] 

Большое спасибо!!! Дети очень просили!!! Автору респект!!! Лови бочку
[Профиль]  [ЛС] 

kinstintin

Гроза морей

Пост 02-Июн-2016 22:32 (спустя 2 часа 6 минут)

[Q] 

Спасибо!!!
Вы лучшие!
[Профиль]  [ЛС] 

Alien2000

Легенда

Пост 02-Июн-2016 23:34 (спустя 1 час 1 минута)

[Q] 

Судя по трейлеру классный фильм.
Лови бочку
[Профиль]  [ЛС] 

Prorok155

Корсар

Пост 03-Июн-2016 10:14 (спустя 10 часов)

[Q] 

Большое спасибо.Помогу с раздачей. Супер!
[Профиль]  [ЛС] 

nitro1985

Корсар

Пост 03-Июн-2016 22:07 (спустя 11 часов)

[Q] 

спасибо!!!
!COOL!
[Профиль]  [ЛС] 

salavat1234

Гроза морей

Пост 03-Июн-2016 23:33 (спустя 1 час 26 минут)

[Q] 

Лови бочку Автору респект!!!
[Профиль]  [ЛС] 

polyk

Флибустьер

Пост 04-Июн-2016 00:59 (спустя 1 час 25 минут)

[Q] 

спасибо забираю!!!!!!!!!!!
[Профиль]  [ЛС] 

MouseEx

Шкипер

Пост 04-Июн-2016 12:18 (спустя 11 часов)

[Q] 

Отличный мульт! Нарисован прекрасно, просто прекрасно! Спасибо за раздачу!
Всем качать!!! Автору респект!!!

_________________
As long as a single of us stands we are legion. /Kain/
[Профиль]  [ЛС] 

FuckOOF

Корсар

Пост 09-Июн-2016 00:25 (спустя 4 дня)

[Q] 

прикольно, советовали Спасибо!!! !COOL!

_________________
[url] [/url]
[Профиль]  [ЛС] 

maigoor

Лоцман

Пост 15-Июн-2016 11:23 (спустя 6 дней)

[Q] 

Раздающему респект! давно ждал!
[Профиль]  [ЛС] 

kosmo72rus

Корсар

Пост 15-Июн-2016 12:44 (спустя 1 час 21 минута)

[Q] 

Вечером посмотрим!
Раздающему респект!

_________________
[Профиль]  [ЛС] 

Ливень

Корсар

Пост 15-Июн-2016 23:56 (спустя 11 часов)

[Q] 

Спасибо за раздачу !
[Профиль]  [ЛС] 

bull271174

Флибустьер

Пост 18-Июн-2016 10:28 (спустя 2 дня 10 часов)

[Q] 

Качество отличное. Но мульт на один раз.
[Профиль]  [ЛС] 

Stormwave

Шкипер

Пост 23-Июн-2016 01:30 (спустя 4 дня)

[Q] 

благодарю) глянем на выходных
[Профиль]  [ЛС] 

Sector_X

Гроза морей

309

Пост 23-Июн-2016 11:29 (спустя 9 часов)

[Q] 

Спасибо!!! Супер!

_________________
[Профиль]  [ЛС] 

clark

Морской Волк

Пост 25-Июн-2016 15:36 (спустя 2 дня 4 часа)

[Q] 

ВАУ !!!! будем смотреть

_________________
Последним смеётся тот, кто стреляет первым.
[Профиль]  [ЛС] 

gekainthenet

Шкипер

Пост 27-Июн-2016 18:26 (спустя 2 дня 2 часа)

[Q] 

Мульт прикольный инетерсный Зуб даю...
[Профиль]  [ЛС] 

Пост 08-Июл-2016 20:10 (спустя 11 дней)

Топик был перенесен из форума Новинки (HD|DVD|BD| TV|SAT|PDTV| - Rips) в форум Зарубежные полнометражные мультфильмы
aleksey99
 

Ливень

Корсар

Пост 21-Ноя-2016 16:33 (спустя 4 месяца 23 дня)

[Q] 

Несмешной мульт, и детям не На любителя очень понравился
[Профиль]  [ЛС] 
Показать сообщения:    
Ответить на тему

Текущее время: Сегодня 09:45

Часовой пояс: GMT + 4



Вы не можете начинать темы
Вы не можете отвечать на сообщения
Вы не можете редактировать свои сообщения
Вы не можете удалять свои сообщения
Вы не можете голосовать в опросах
Вы не можете прикреплять файлы к сообщениям
Вы не можете скачивать файлы

▼ Вниз