ML
     
  Уважаемый Гость!
Вы можете поддержать проект и зарегистрироваться у наших партнеров - онлайн-стратегия MyLands. При регистрации в игре Вы получите код, который сможете активировать после регистрации на pirat.ca и получить 1000 дублонов.

Ваш код:
0ea1bf889af42fca5f67d0a391efb3400850ad7c
 
     

Барби и команда шпионов / Barbie: Spy Squad (Конрад Хелтен / Conrad Helten) [2016 г., мультфильм, приключения, семейный, детский, BDRip] Dub [R5] + Original (Eng)

Ответить на тему
 
Автор
Сообщение

Пост 08-Июн-2016 14:49

[Q] 

somik

Легенда

-Барби и команда шпионов / Barbie: Spy Squad-- Производство: США, Канада, DHX Media, Mattel Playground Productions, Nickelodeon,ьPlayground Productions, Vida Spark Productions
Режиссер: Конрад Хелтен / Conrad Helten
Жанр: мультфильм, приключения, семейный, детский
Год выпуска: 2016 г.
Продолжительность: 01:15:25
Мировая премьера: 15 января 2016
Перевод: Профессиональный (полное дублирование) [R5]
Оригинальный аудиопоток: английский
Роли озвучивали: Стефани Шех, Дженни Пеллисер, Бриттни Ирвин, Брайан Добсон, Ребекка Хусейн, Кэти Уэслак, Джонатан Холмс…-Описание: Милое личико человека не всегда означает беззащитность… Барби много времени проводит с Рене и Терезой. Девчонки занимаются гимнастикой. Их гибкость подметили не только восторженные зрители и друзья. Шпионы заинтересовались троицей. Ловкая воровка выносит самое дорогое и вычислить девицу трудно. Спецслужбы считают, что гимнастическая грациозность новых сотрудниц поможет в нелегкой работе по делу с неуемной миледи. Милая Барби не может отказать и помогает каждому, в этом ее добрая суть. Теперь все шпионские фишки к услугам девушек. Физическая подготовка для агента важна, но суперкостюмы не помешают, как и роботы-питомцы. Главное в работе секретного агента – наблюдательность и командный дух. Этого у подружек хватает. Поскольку героини серьезные девочки, то можно считать, что дело уже расследовано…-Сэмпл IMDB КиноПоиск
Качество видео: BDRip
Контейнер: AVI
Видео кодек: XviD
Аудио кодек: AC3
Видео: 704x400 (1.76:1), 23.976 fps, XviD MPEG-4 ~1946 kbps avg, 0.29 bit/pixel
Аудио: 48 kHz, AC3 Dolby Digital, 3/2 (L,C,R,l,r) + LFE ch, ~384 kbps - Dub R5
Аудио #2: 48 kHz, AC3 Dolby Digital, 3/2 (L,C,R,l,r) + LFE ch, ~448 kbps
Cубтитры: отсутствуют
Формат : AVI
Формат/Информация : Audio Video Interleave
Размер файла : 1,47 Гбайт
Продолжительность : 1 ч. 15 м.
Общий поток : 2794 Кбит/сек
Название фильма : Barbie.Spy.Squad.2016.R5.BDRip.[pirat.ca]
Программа кодирования : VirtualDubMod 1.5.10.2 (build 2540/release)
Видео
Идентификатор : 0
Формат : MPEG-4 Visual
Профиль формата : Advanced [email protected]
Параметр BVOP формата : 2
Параметр QPel формата : Нет
Параметр GMC формата : Без точки перехода
Параметр матрицы формата : Выборочная
Идентификатор кодека : XVID
Идентификатор кодека/Подсказка : XviD
Продолжительность : 1 ч. 15 м.
Битрейт : 1948 Кбит/сек
Ширина : 704 пикселя
Высота : 400 пикселей
Соотношение сторон : 16:9
Частота кадров : 23,976 (23976/1000) кадра/сек
Цветовое пространство : YUV
Субдискретизация насыщенности : 4:2:0
Битовая глубина : 8 бит
Тип развёртки : Прогрессивная
Метод сжатия : С потерями
Бит/(Пиксели*Кадры) : 0.288
Размер потока : 1,03 Гбайт (70%)
Библиотека кодирования : XviD 73
Аудио #1
Идентификатор : 1
Формат : AC-3
Формат/Информация : Audio Coding 3
Расширение режима : CM (complete main)
Параметр Endianness формата : Big
Идентификатор кодека : 2000
Продолжительность : 1 ч. 15 м.
Вид битрейта : Постоянный
Битрейт : 384 Кбит/сек
Каналы : 6 каналов
Расположение каналов : Front: L C R, Side: L R, LFE
Частота : 48,0 КГц
Частота кадров : 31,250 кадров/сек (1536 spf)
Метод сжатия : С потерями
Размер потока : 207 Мбайт (14%)
Выравнивание : Разделение по промежуткам
Продолжительность промежутка : 42 мс. (1,00 видеокадр)
Время предзагрузки промежутка : 500 мс.
Заголовок : Dub R5
Аудио #2
Идентификатор : 2
Формат : AC-3
Формат/Информация : Audio Coding 3
Расширение режима : CM (complete main)
Параметр Endianness формата : Big
Идентификатор кодека : 2000
Продолжительность : 1 ч. 15 м.
Вид битрейта : Постоянный
Битрейт : 448 Кбит/сек
Каналы : 6 каналов
Расположение каналов : Front: L C R, Side: L R, LFE
Частота : 48,0 КГц
Частота кадров : 31,250 кадров/сек (1536 spf)
Метод сжатия : С потерями
Размер потока : 242 Мбайт (16%)
Выравнивание : Разделение по промежуткам
Продолжительность промежутка : 42 мс. (1,00 видеокадр)
Время предзагрузки промежутка : 500 мс.
Download / Скачать

Хотите скачать бесплатно? Зарегистрируйтесь на сайте (ссылка на регистрацию). Pirat.ca - самый быстрый торрент трекер в рунете!

Как скачивать  ·   Что такое торрент  ·   Рейтинг и ограничения

Пост 09-Июн-2016 11:25 (спустя 20 часов)

Топик был перенесен из форума Мультфильмы (Трюм) в форум Зарубежные полнометражные мультфильмы
Андря
 
Показать сообщения:    
Ответить на тему

Текущее время: Сегодня 00:33

Часовой пояс: GMT + 4



Вы не можете начинать темы
Вы не можете отвечать на сообщения
Вы не можете редактировать свои сообщения
Вы не можете удалять свои сообщения
Вы не можете голосовать в опросах
Вы не можете прикреплять файлы к сообщениям
Вы не можете скачивать файлы

▼ Вниз