ML
     
  Уважаемый Гость!
Вы можете поддержать проект и зарегистрироваться у наших партнеров - онлайн-стратегия MyLands. При регистрации в игре Вы получите код, который сможете активировать после регистрации на pirat.ca и получить 1000 дублонов.

Ваш код:
47bfc18b89c74e4ae0d974e9b6943639e2bff08e
 
     

Хранитель Луны / Mune, le gardien de la lune (Александр Эбоян / Alexandre Heboyan, ...) [2014 г., мультфильм, фэнтези, BDRip-AVC] Dub [Лицензия]

Ответить на тему
 
Автор
Сообщение

Пост 11-Июн-2016 21:28

[Q] 

somik

Легенда

-Хранитель Луны / Mune, le gardien de la lune-- Производство: Франция, Kinology, ON Animation Studios, Onyx Films, Orange Studio, ...
Год выпуска: 2014 г.
Жанр: мультфильм, фэнтези
Продолжительность: 01:21:26
Мировая премьера: 6 декабря 2014
Российская премьера: 28 мая 2015, «Вольга»
Перевод: Профессиональный (полное дублирование) [Лицензия]
Режиссер: Александр Эбоян / Alexandre Heboyan, ...-В ролях: Омар Си, Изиа Ижлен, Майкл Грегорио, Шафик Ахмад, Бенуа Аллемане, Шеннон Арчи, Федор Аткин, Джошуа Дж. Баллард, Дэмиен Буассо, Эммануэль Кюртиль, Софи де Фюрст, Тревор Дивэлл
Роли дублировали: Александр Ревва, Наталия Медведева, Василий Буткевич, Алексей Багдасаров, Илья Барабанов, ...-Описание: На диковинной планете, где смена дня и ночи осуществляется вручную, юного фавна Мьюна неожиданно избирают хранителем Луны. Но к своему ужасу, он почти сразу теряет ее! Воспользовавшись этим, царь подземного мира Некрос крадет и гасит Солнце. Теперь, чтобы спасти планету, Мьюн вместе с отважной девочкой из воска Глим и заносчивым Сохоном, хранителем Солнца, должны отправиться в удивительное и опасное путешествие.-
Качество видео: BDRip-AVC
Контейнер: MKV
Видео кодек: MPEG4 AVC
Аудио кодек: AC3
Видео: 1086 Кбит/сек, 960*402 (2,35:1), в 25,000 кадр/сек, AVC
Аудио: Russian, 192 Кбит/сек, 48,0 КГц, 16 бит, 2 канала(ов), AC-3
Cубтитры: отсутствуют
Про этот мультфильм в голове кружится лишь одно слово: «Прелесть!». Потому, что все в нем соответствует этому слову и персонажи и их характер, и все окружающее. После него, как говорится, улыбается душа. Не понимаю почему рейтинг еще не перевалил за восьмерку!
Сюжет потрясающий. Сама идея того, что существуют разные миры или, что луну можно выковать из камня кажется мне волшебной. И чтобы все это оставалось таким же красивым нужна гармония, что является ценным уроком для детей! Моя маленькая сестренка сказала, что это мультик про ее мечты и сны.
Особенно мне понравилось прекрасное животное, которые было храмом луны. Нарисованное с такой тонкостью и красотой, как почти и все произведение, полное ярких и темных красок.
Думаю, к просмотру обязателен!
Общее
Уникальный идентификатор : 213401034913899654037771469349703206193 (0xA08B8B593C898FB0838EB289795D4531)
Полное имя : J:\Хранитель Луны\Hranitel luny.2014.BDRip-AVC.[pirat.ca].mkv
Формат : Matroska
Версия формата : Version 2
Размер файла : 743 Мбайт
Продолжительность : 1 ч. 21 м.
Общий поток : 1275 Кбит/сек
Название фильма : Mune, le gardien de la lune (2014)
Дата кодирования : UTC 2016-06-11 17:06:47
Программа кодирования : mkvmerge v5.3.0 ('I could have danced') built on Feb 9 2012 10:38:07
Библиотека кодирования : libebml v1.2.3 + libmatroska v1.3.0
Видео
Идентификатор : 1
Формат : AVC
Формат/Информация : Advanced Video Codec
Профиль формата : [email protected]
Параметр CABAC формата : Да
Параметр ReFrames формата : 16 кадров
Режим смешивания : Header stripping
Идентификатор кодека : V_MPEG4/ISO/AVC
Продолжительность : 1 ч. 21 м.
Битрейт : 1086 Кбит/сек
Ширина : 960 пикселей
Высота : 402 пикселя
Соотношение сторон : 2,40:1
Режим частоты кадров : Постоянный
Частота кадров : 25,000 кадров/сек
Цветовое пространство : YUV
Субдискретизация насыщенности : 4:2:0
Битовая глубина : 8 бит
Тип развёртки : Прогрессивная
Бит/(Пиксели*Кадры) : 0.113
Размер потока : 616 Мбайт (83%)
Заголовок : Mune, le gardien de la lune (2014)
Библиотека кодирования : x264 core 146 r2538kMod 121396c
Настройки программы : cabac=1 / ref=16 / deblock=1:-1:-1 / analyse=0x3:0x133 / me=umh / subme=11 / psy=1 / fade_compensate=0.00 / psy_rd=1.00:0.08 / mixed_ref=1 / me_range=48 / chroma_me=1 / trellis=2 / 8x8dct=1 / cqm=0 / deadzone=21,11 / fast_pskip=0 / chroma_qp_offset=-3 / threads=12 / lookahead_threads=3 / sliced_threads=0 / nr=0 / decimate=0 / interlaced=0 / bluray_compat=0 / constrained_intra=0 / fgo=0 / bframes=16 / b_pyramid=2 / b_adapt=2 / b_bias=0 / direct=3 / weightb=1 / open_gop=0 / weightp=2 / keyint=250 / keyint_min=25 / scenecut=40 / intra_refresh=0 / rc_lookahead=60 / rc=2pass / mbtree=0 / bitrate=1086 / ratetol=1.0 / qcomp=0.70 / qpmin=0 / qpmax=69 / qpstep=4 / cplxblur=20.0 / qblur=0.5 / vbv_maxrate=50000 / vbv_bufsize=62500 / nal_hrd=none / filler=0 / ip_ratio=1.40 / pb_ratio=1.30 / aq=3:0.85
Default : Да
Forced : Нет
Аудио
Идентификатор : 2
Формат : AC-3
Формат/Информация : Audio Coding 3
Расширение режима : CM (complete main)
Параметр Endianness формата : Big
Режим смешивания : Header stripping
Идентификатор кодека : A_AC3
Продолжительность : 1 ч. 21 м.
Вид битрейта : Постоянный
Битрейт : 192 Кбит/сек
Каналы : 2 канала
Расположение каналов : Front: L R
Частота : 48,0 КГц
Частота кадров : 31,250 кадров/сек (1536 spf)
Метод сжатия : С потерями
Размер потока : 112 Мбайт (15%)
Язык : Russian
Default : Да
Forced : Нет
Download / Скачать

Хотите скачать бесплатно? Зарегистрируйтесь на сайте (ссылка на регистрацию). Pirat.ca - самый быстрый торрент трекер в рунете!

Как скачивать  ·   Что такое торрент  ·   Рейтинг и ограничения

alex198408

Морской Волк

Пост 12-Июн-2016 00:12 (спустя 2 часа 43 минуты)

[Q] 

как мульт? Спасибо!!! Автору респект!!!
[Профиль]  [ЛС] 

BaggyOd

Пост 14-Окт-2016 09:59 (спустя 4 месяца 2 дня)

[Q] 

Супер. Мне очень поравился
[Профиль]  [ЛС] 
Показать сообщения:    
Ответить на тему

Текущее время: Сегодня 07:01

Часовой пояс: GMT + 4



Вы не можете начинать темы
Вы не можете отвечать на сообщения
Вы не можете редактировать свои сообщения
Вы не можете удалять свои сообщения
Вы не можете голосовать в опросах
Вы не можете прикреплять файлы к сообщениям
Вы не можете скачивать файлы

▼ Вниз