ML
     
  Уважаемый Гость!
Вы можете поддержать проект и зарегистрироваться у наших партнеров - онлайн-стратегия MyLands. При регистрации в игре Вы получите код, который сможете активировать после регистрации на pirat.ca и получить 1000 дублонов.

Ваш код:
5af7de75d3db09b6a37bc8bab71b0e87ccde73d6
 
     

Звериный отряд. Код Марко Поло / Cuccioli e il codice di Marco Polo (Франческо Манфио / Francesco Manfio) [2010 г., комедия, приключения, DVDRip] MVO

Ответить на тему
 
Автор
Сообщение

Пост 31-Янв-2012 17:39

[Q] 

Sirota

Легенда

Звериный отряд. Код Марко Поло / Cuccioli e il codice di Marco Polo Год выпуска: 2010
Мировая премьера: 22 января 2010
Российская премьера: 19 января 2012, «Мистерия Звука»
Дата выхода DVD: 19 января 2012, «Мистерия Звука»
Производство: Италия
Жанр: комедия, приключения
Продолжительность: 01:30:18
Перевод: Профессиональный (многоголосый, закадровый)[лицензия]Режиссер: Франческо Манфио / Francesco Manfio
В ролях
Gerolamo Alchieri
Пино Аммендола
Tiziana Avarista
Луиджи Ферраро
Паола Джаннетти
Laura Lenghi
Паоло Ломбарди
Franco Mannella
Эдоардо Невола
Гиги Роза
Описание
Злая ведьма по имени Ворона ненавидит Венецию. Настолько, что хочет с помощью древней и ужасной магии, обретенной в скрытой пещере гималайских гор, осушить каналы и превратить прекрасный город в подобие огромного мегаполиса. Единственный способ противостоять колдунье — найти код Марко Поло, который содержит секретную информацию о расположении венецианского Дворца Магии.
Легенда гласит, что именно там спрятаны контрзаклинания, способные победить ведьму и развеять чёрную магию. Такое задание по зубам только Звериному Отряду — подразделению особого назначения, состоящему из кота Холли, утки Дивы, кролика Шляпника и лягушонка Пио…
IMDB , КиноПоиск
Источник/Качество: DVDRip
Формат: AVI
Видео кодек: XviD
Аудио кодек: AC3
Видео: 720x400 (1.80:1), 25 fps, XviD build 64 ~2104 kbps avg, 0.29 bit/pixel
Аудио: 48 kHz, AC3 Dolby Digital, 2/0 (L,R) ch, ~192.00 kbps avg
General
Format : AVI
Format/Info : Audio Video Interleave
File size : 1.45 GiB
Duration : 1h 30mn
Overall bit rate : 2 306 Kbps
Writing application : VirtualDubMod 1.5.10.3 (build 2550/release)
Writing library : VirtualDubMod build 2550/release
Video #0
ID : 0
Format : MPEG-4 Visual
Format profile : [email protected]
Format settings, BVOP : Yes
Format settings, QPel : No
Format settings, GMC : No warppoints
Format settings, Matrix : Custom
Codec ID : XVID
Codec ID/Hint : XviD
Duration : 1h 30mn
Bit rate : 2 105 Kbps
Width : 720 pixels
Height : 400 pixels
Display aspect ratio : 16:9
Frame rate : 25.000 fps
Resolution : 24 bits
Colorimetry : 4:2:0
Scan type : Progressive
Bits/(Pixel*Frame) : 0.292
Stream size : 1.33 GiB (91%)
Writing library : XviD 64
Audio #1
ID : 1
Format : AC-3
Format/Info : Audio Coding 3
Codec ID : 2000
Duration : 1h 30mn
Bit rate mode : Constant
Bit rate : 192 Kbps
Channel(s) : 2 channels
Channel positions : L R
Sampling rate : 48.0 KHz
Stream size : 124 MiB (8%)
Alignment : Split accross interleaves
Interleave, duration : 40 ms (1.00 video frame)
Interleave, preload duration : 500 ms
сценарий Anna Manfio, Франческо Манфио, Sergio Manfio
композитор Sergio Manfio, Лоренцо Томио
Download / Скачать

Хотите скачать бесплатно? Зарегистрируйтесь на сайте (ссылка на регистрацию). Pirat.ca - самый быстрый торрент трекер в рунете!

Как скачивать  ·   Что такое торрент  ·   Рейтинг и ограничения

Пост 31-Янв-2012 17:51 (спустя 11 минут)

Топик был перенесен из форума Мультипликация в форум Зарубежные полнометражные мультфильмы

ThisMan
 

KIRST

Корсар

Пост 31-Янв-2012 23:00 (спустя 5 часов)

[Q] 

Спасибо
[Профиль]  [ЛС] 

wirtual

Гроза морей

Пост 01-Фев-2012 21:11 (спустя 22 часа)

[Q] 

чет какчество анимацЫи не на высоте :(

_________________
не будешь делиться - останешься одноклеточным
[Профиль]  [ЛС] 

CHARLI2236

1090

Пост 30-Окт-2012 13:06 (спустя 8 месяцев 28 дней)

[Q] 

спс

_________________
[Профиль]  [ЛС] 
Показать сообщения:    
Ответить на тему

Текущее время: Сегодня 14:11

Часовой пояс: GMT + 4



Вы не можете начинать темы
Вы не можете отвечать на сообщения
Вы не можете редактировать свои сообщения
Вы не можете удалять свои сообщения
Вы не можете голосовать в опросах
Вы не можете прикреплять файлы к сообщениям
Вы не можете скачивать файлы

▼ Вниз