ML
     
  Уважаемый Гость!
Вы можете поддержать проект и зарегистрироваться у наших партнеров - онлайн-стратегия MyLands. При регистрации в игре Вы получите код, который сможете активировать после регистрации на pirat.ca и получить 1000 дублонов.

Ваш код:
4fbd9898b6f10799a3e8edf60f31febd2bc15453
 
     

Академия ведьмочек: Колдовской парад / Ritoru wicchi akademia: Mahoujihikake no parêdo / Little Witch Academia (Ё Ёсинари / Yô Yoshinari) [2015 г., фэнтези, комедия, BDRip-AVC] MVO [AniFilm]

Ответить на тему
 
Автор
Сообщение

Пост 26-Июн-2016 16:11

[Q] 

somik

Легенда

-Академия ведьмочек: Колдовской парад / Ritoru wicchi akademia: Mahoujihikake no parêdo / Little Witch Academia-- Производство: Япония, Good Smile Company, Trigger
Режиссер: Ё Ёсинари / Yô Yoshinari
Жанр: фэнтези, комедия
Год выпуска: 2015 г.
Продолжительность: 00:53:25
Мировая премьера: 3 июля 2015
Перевод: Любительский (многоголосый, закадровый) [AniFilm]
Роли озвучивали: Мегуми Хань, Фумико Орикаса, Мичийо Мурасэ, Ёко Хикаса, Дженнифер Аликс, Люсьен Додж, Эйлин Галиндо, Rachelle Heger, Норико Хидака, Эрика Мендес, ...
Акварелька, Баяна, DemonOFmooN, MezIdA, Lali, Мулентий, Муневра, Mosa-Описание: Акко со своими подругами находится на грани исключения из академии. Чтобы искупить свою вину, им предстоит устроить Колдовской парад. Вся организация этого парада ложится на плечи шестерых ведьмочек. Они уже было отчаились и не знали, что делать, но Акко наполнила всех энтузиазмом, и было решено сделать такой парад, который заставит людей посмотреть на ведьм с лучшей стороны!-Сэмпл IMDB КиноПоиск
Качество видео: BDRip-AVC
Контейнер: MKV
Видео кодек: MPEG4 AVC
Аудио кодек: AC3
Видео: 1280x720, 3 500 kbps, 23.976 fps
Аудио: ac3, 192 kbps, 48 KHz, 2 ch
Cубтитры: отсутствуют
Общее
Уникальный идентификатор : 228097703572226139648530889666199943788 (0xAB9A050EB37CF271AAD3DBB488C5FA6C)
Полное имя : F:\Академия ведьмочек\Little Witch Academia - The Enchanted Parade.BDRip 720p.[pirat.ca].mkv
Формат : Matroska
Версия формата : Version 2
Размер файла : 1,38 Гбайт
Продолжительность : 53 м.
Общий поток : 3693 Кбит/сек
Дата кодирования : UTC 2016-06-26 11:49:52
Программа кодирования : mkvmerge v5.3.0 ('I could have danced') built on Feb 9 2012 10:38:07
Библиотека кодирования : libebml v1.2.3 + libmatroska v1.3.0
Видео
Идентификатор : 1
Формат : AVC
Формат/Информация : Advanced Video Codec
Профиль формата : [email protected]
Параметр CABAC формата : Да
Параметр ReFrames формата : 10 кадров
Идентификатор кодека : V_MPEG4/ISO/AVC
Продолжительность : 53 м.
Битрейт : 3500 Кбит/сек
Ширина : 1280 пикселей
Высота : 720 пикселей
Соотношение сторон : 16:9
Режим частоты кадров : Постоянный
Частота кадров : 23,976 (24000/1001) кадра/сек
Цветовое пространство : YUV
Субдискретизация насыщенности : 4:2:0
Битовая глубина : 8 бит
Тип развёртки : Прогрессивная
Бит/(Пиксели*Кадры) : 0.158
Размер потока : 1,28 Гбайт (93%)
Библиотека кодирования : x264 core 119 r2106 07efeb4
Настройки программы : cabac=1 / ref=10 / deblock=1:-3:-3 / analyse=0x3:0x133 / me=umh / subme=10 / psy=1 / psy_rd=1.00:0.00 / mixed_ref=1 / me_range=48 / chroma_me=0 / trellis=2 / 8x8dct=1 / cqm=0 / deadzone=21,11 / fast_pskip=0 / chroma_qp_offset=-2 / threads=6 / sliced_threads=0 / nr=0 / decimate=1 / interlaced=0 / bluray_compat=0 / constrained_intra=0 / bframes=3 / b_pyramid=2 / b_adapt=2 / b_bias=0 / direct=3 / weightb=1 / open_gop=0 / weightp=2 / keyint=250 / keyint_min=23 / scenecut=40 / intra_refresh=0 / rc_lookahead=60 / rc=2pass / mbtree=1 / bitrate=3500 / ratetol=1.0 / qcomp=0.60 / qpmin=10 / qpmax=51 / qpstep=4 / cplxblur=20.0 / qblur=0.5 / ip_ratio=1.40 / aq=1:1.00
Default : Да
Forced : Нет
Аудио
Идентификатор : 2
Формат : AC-3
Формат/Информация : Audio Coding 3
Расширение режима : CM (complete main)
Параметр Endianness формата : Big
Идентификатор кодека : A_AC3
Продолжительность : 53 м.
Вид битрейта : Постоянный
Битрейт : 192 Кбит/сек
Каналы : 2 канала
Расположение каналов : Front: L R
Частота : 48,0 КГц
Частота кадров : 31,250 кадров/сек (1536 spf)
Метод сжатия : С потерями
Размер потока : 73,4 Мбайт (5%)
Заголовок : AniFilm
Язык : Russian
Default : Да
Forced : Да
Download / Скачать

Хотите скачать бесплатно? Зарегистрируйтесь на сайте (ссылка на регистрацию). Pirat.ca - самый быстрый торрент трекер в рунете!

Как скачивать  ·   Что такое торрент  ·   Рейтинг и ограничения

Пост 27-Июн-2016 09:49 (спустя 17 часов)

Топик был перенесен из форума Мультфильмы (Трюм) в форум Зарубежные полнометражные мультфильмы
Андря
 
Показать сообщения:    
Ответить на тему

Текущее время: Сегодня 20:03

Часовой пояс: GMT + 4



Вы не можете начинать темы
Вы не можете отвечать на сообщения
Вы не можете редактировать свои сообщения
Вы не можете удалять свои сообщения
Вы не можете голосовать в опросах
Вы не можете прикреплять файлы к сообщениям
Вы не можете скачивать файлы

▼ Вниз