ML
     
  Уважаемый Гость!
Вы можете поддержать проект и зарегистрироваться у наших партнеров - онлайн-стратегия MyLands. При регистрации в игре Вы получите код, который сможете активировать после регистрации на pirat.ca и получить 1000 дублонов.

Ваш код:
fe4e93b754a7c2b306fcfc8bc32532ea1cf59d3b
 
     

Элвин и бурундуки: Грандиозное бурундуключение / Alvin and the Chipmunks: The Road Chip (Уолт Бекер / Walt Becker) [2015 г., мультфильм, фэнтези, комедия, приключения, семейный, музыка, HDRip] Dub [Blu-Ray EUR / Лицензия]

Ответить на тему
 
Автор
Сообщение

Пост 14-Июл-2016 11:57

[Q] 

somik

Легенда

-Элвин и бурундуки: Грандиозное бурундуключение / Alvin and the Chipmunks: The Road Chip-- Производство: США, Bagdasarian Productions, Fox 2000 Pictures, Regency Enterprises, Sunswept Entertainment, TSG Entertainment, ...
Год выпуска: 2015 г.
Жанр: мультфильм, фэнтези, комедия, приключения, семейный, музыка
Продолжительность: 01:32:00
Мировая премьера: 6 декабря 2015
Российская премьера: 14 января 2016, «Двадцатый Век Фокс СНГ»
Перевод: Профессиональный (полное дублирование) [Blu-Ray EUR / Лицензия]
Режиссер: Уолт Бекер / Walt Becker-В ролях: Джейсон Ли, Джастин Лонг, Мэттью Грей Гублер, Джесси МакКартни, Кимберли Уильямс-Пэйсли, Джош Грин, Тони Хейл, Белла Торн, Эдди Стиплз, Кристина Эпплгейт-Описание: Бурундуки пойдут на всё, чтобы сохранить свою семью, даже на грандиозное бурундуключение по всей Америке!
Когда Бурундуки видят, что Дэйв берет с собой коробочку с кольцом в поездку в Майами, они отчаянно пытаются помешать ему сделать предложение его девушке — из опасения, что мачеха и сводный брат внесут перемены в их семейную идиллию. Но после того, как их помещают в черный список за хулиганское поведение в самолете, Элвин, Саймон, Теодор и их будущий брат Майлз отправляются в самое важное путешествие в их жизни через всю страну, чтобы успеть помешать помолвке.-
Качество видео: HDRip
Контейнер: AVI
Видео кодек: XviD
Аудио кодек: MP3
Видео: 624x336 (1.86:1), 23.976 fps, XviD build 73 ~997 kbps avg, 0.20 bit/pixel
Аудио: 48 kHz, MPEG Layer 3, 2 ch, ~128.00 kbps avg
Cубтитры: отсутствуют
Это второй фильм серии после «Элвина и бурундуков 3» (2011), музыку к которому написал Марк Мазерсбо, и первый фильм, предназначенный к показу в кинотеатрах, после фильма «Элвин и бурундуки 3», вышедшего четыре года назад.
Роль Саманты авторы фильма одно время подумывали предложить Одетт Эннэбл и Брайс Даллас Ховард.
Это первый фильм серии, в котором отсутствует персонаж Дэвида Кросса в исполнении Яна Хоука.
Некоторые эпизоды фильма были сняты в Майами-Бич.
Съёмки фильма проходили в штате Джорджия.
Это четвёртая серия франшизы «Элвин и бурундуки».
Это первый фильм серии, в котором спецэффекты в сценах с бурундуками сделаны студией «Weta Digital», а не «Rhythm and Hues». Студия «Rhythm and Hues» в 2013 году обанкротилась.
Джейсон Ли и Эдди Стиплз встретились на съёмочной площадке этого фильма впервые после съёмок в сериале «Меня зовут Эрл», который шёл на канале «NBC» в 2005-2009 годах.
23 марта 2015 года было объявлено, что к съёмочной группе фильма присоединилась Белла Торн.
Одно время ходили слухи, что в четвёртом фильме Элвин будет говорить голосом не Джастина Лонга, а Мэттью Лилларда. Впоследствии стало известно, что Лиллард занят своим персонажем «Шэгги» Роджерса во франшизе «Скуби-ду», так что озвучил Элвина всё тот же Лонг.
До этого я не смотрела ни одного фильма из серии и хочу сказать, что у фильма совершенно незаслуженно низкая оценка.
Можно понять кинокритиков, действительно, в фильме полно клише и в целом сюжет очень предсказуем. Но у него очень много плюсов для обычного зрителя.
Его очень приятно смотреть. Очень милый, душевный, присутствуют оригинальные шутки от которых невозможно не улыбнуться. Песни не запоминающиеся, но очень улыбающие.
Почему-то многие заранее отрицательно настроены на этот фильм, но из зала все выходят довольными. Фильм особенно понравится любителям мультиков. К минусам можно отнести занудненькое начало, которое может оттолкнуть от просмотра, ну и саундтреки могли бы быть посильнее.
8 из 10
бщее
Полное имя : C:\герои 7\Элвин и бурундуки\Alvin i Burunduki.2015.HDRip.[pirat.ca].avi
Формат : AVI
Формат/Информация : Audio Video Interleave
Размер файла : 747 Мбайт
Продолжительность : 1 ч. 32 м.
Общий поток : 1135 Кбит/сек
Название фильма : Alvin i Burunduki.2015.HDRip.[pirat.ca]
Программа кодирования : VirtualDubMod 1.5.10.3 | www.virtualdub-fr.org || (build 2550/release)
Видео
Идентификатор : 0
Формат : MPEG-4 Visual
Профиль формата : Advanced [email protected]
Параметр BVOP формата : 1
Параметр QPel формата : Нет
Параметр GMC формата : Без точки перехода
Параметр матрицы формата : Выборочная
Идентификатор кодека : XVID
Идентификатор кодека/Подсказка : XviD
Продолжительность : 1 ч. 32 м.
Битрейт : 998 Кбит/сек
Ширина : 624 пикселя
Высота : 336 пикселей
Соотношение сторон : 1,85:1
Частота кадров : 23,976 (23976/1000) кадра/сек
Цветовое пространство : YUV
Субдискретизация насыщенности : 4:2:0
Битовая глубина : 8 бит
Тип развёртки : Прогрессивная
Метод сжатия : С потерями
Бит/(Пиксели*Кадры) : 0.198
Размер потока : 657 Мбайт (88%)
Библиотека кодирования : XviD 73
Аудио
Идентификатор : 1
Формат : MPEG Audio
Версия формата : Version 1
Профиль формата : Layer 3
Идентификатор кодека : 55
Идентификатор кодека/Подсказка : MP3
Продолжительность : 1 ч. 32 м.
Вид битрейта : Постоянный
Битрейт : 128 Кбит/сек
Каналы : 2 канала
Частота : 48,0 КГц
Метод сжатия : С потерями
Размер потока : 84,2 Мбайт (11%)
Выравнивание : Соединение по промежуткам
Продолжительность промежутка : 42 мс. (1,00 видеокадр)
Время предзагрузки промежутка : 504 мс.
Библиотека кодирования : LAME3.99r
Настройки программы : -m s -V 4 -q 2 -lowpass 17 -b 128
Download / Скачать

Хотите скачать бесплатно? Зарегистрируйтесь на сайте (ссылка на регистрацию). Pirat.ca - самый быстрый торрент трекер в рунете!

Как скачивать  ·   Что такое торрент  ·   Рейтинг и ограничения

Показать сообщения:    
Ответить на тему

Текущее время: Сегодня 14:32

Часовой пояс: GMT + 4



Вы не можете начинать темы
Вы не можете отвечать на сообщения
Вы не можете редактировать свои сообщения
Вы не можете удалять свои сообщения
Вы не можете голосовать в опросах
Вы не можете прикреплять файлы к сообщениям
Вы не можете скачивать файлы

▼ Вниз