ML
     
  Уважаемый Гость!
Вы можете поддержать проект и зарегистрироваться у наших партнеров - онлайн-стратегия MyLands. При регистрации в игре Вы получите код, который сможете активировать после регистрации на pirat.ca и получить 1000 дублонов.

Ваш код:
a6d1ef7ff63e237add5a4c8b21d8aa937c5e9b4b
 
     

Господин Иллюминатор / Mr Hublot (Александр Эспигарес / Alexandre Espigares) [2013 г., мультфильм, короткометражка, фэнтези, комедия, семейный, WEB-DLRip]

Ответить на тему
 
Автор
Сообщение

Пост 09-Авг-2016 04:10

[Q] 

somik

Легенда

-Господин Иллюминатор / Mr Hublot-- Производство: Люксембург, Франция, WATT frame, ZEILT productions
Режиссер: Александр Эспигарес / Alexandre Espigares
Жанр: мультфильм, короткометражка, фэнтези, комедия, семейный
Год выпуска: 2013 г.
Продолжительность: 00:11:02
Мировая премьера: 28 февраля 2013
Перевод: Не требуется
Описание: Главный герой живет в абсурдном, постиндустриальном мире, где исчезла природа и большинство «человеческих» отношений.-Сэмпл IMDB КиноПоиск
Качество видео: WEB-DLRip
Контейнер: AVI
Видео кодек: XviD
Аудио кодек: AC3
Видео: 720x324 (2.22:1), 25 fps, XviD build 67 ~1500 kbps avg, 0.26 bit/pixel
Аудио: 48 kHz, AC3 Dolby Digital, 2/0 (L,R) ch, ~448 kbps
Cубтитры: отсутствуют
Оскар, 2014 год
Победитель (1):
Лучший короткометражный анимационный фильм
11 минут доброты
«Господин Иллюминатор» — приятная, исключительно положительная история о светлых чувствах добра и милосердия, которым, казалось бы, не место в полностью техническом мире.
Крайне удачный дебют начинающих режиссёров Лорена Уитца и Александра Эспигареса, который заслуженно получил статуэтку Американской киноакадемии. Я не видел других анимационных короткометражек-номинантов, но однозначно могу утверждать, что такие милые, пропитанные добротой истории должны отмечаться разнообразными наградами, тем более в современном мире, которым постепенно овладевает алчность, в котором люди перестают понимать силу вечных человеческих ценностей — доброты и сострадания.
Сюжет простой до безобразия, но история трогает до глубины души, заставляет задуматься и взглянуть на свои моральные принципы. Если фильму удалось оказать такое влияние, значит он бесспорно заслуживает внимания. А качественная графика и приятное музыкальное сопровождение помогут осознать всю шедевральность сего чудного мульта…
9 из 10
P.S. не спешите выключать сразу после начала титров
Общее
Полное имя : J:\Океаноборец\Mr.Hublot.2013.WEB-DLRip.[pirat.ca].avi
Формат : AVI
Формат/Информация : Audio Video Interleave
Размер файла : 155 Мбайт
Продолжительность : 11 м.
Общий поток : 1960 Кбит/сек
Название фильма : Mr.Hublot.2013.WEB-DLRip.[pirat.ca]
Программа кодирования : Lavf57.25.100
Видео
Идентификатор : 0
Формат : MPEG-4 Visual
Профиль формата : [email protected]
Параметр BVOP формата : 1
Параметр QPel формата : Нет
Параметр GMC формата : Без точки перехода
Параметр матрицы формата : Default (H.263)
Идентификатор кодека : XVID
Идентификатор кодека/Подсказка : XviD
Продолжительность : 11 м.
Битрейт : 1501 Кбит/сек
Ширина : 720 пикселей
Высота : 324 пикселя
Соотношение сторон : 2,222
Частота кадров : 25,000 кадров/сек
Цветовое пространство : YUV
Субдискретизация насыщенности : 4:2:0
Битовая глубина : 8 бит
Тип развёртки : Прогрессивная
Метод сжатия : С потерями
Бит/(Пиксели*Кадры) : 0.257
Размер потока : 118 Мбайт (77%)
Библиотека кодирования : XviD 67
Аудио
Идентификатор : 1
Формат : AC-3
Формат/Информация : Audio Coding 3
Расширение режима : CM (complete main)
Параметр Endianness формата : Big
Идентификатор кодека : 2000
Продолжительность : 11 м.
Вид битрейта : Постоянный
Битрейт : 448 Кбит/сек
Каналы : 2 канала
Расположение каналов : Front: L R
Частота : 48,0 КГц
Частота кадров : 31,250 кадров/сек (1536 spf)
Битовая глубина : 16 бит
Метод сжатия : С потерями
Размер потока : 35,4 Мбайт (23%)
Выравнивание : Соединение по промежуткам
Продолжительность промежутка : 32 мс. (0,80 видеокадр)
Время предзагрузки промежутка : 32 мс.
Download / Скачать

Хотите скачать бесплатно? Зарегистрируйтесь на сайте (ссылка на регистрацию). Pirat.ca - самый быстрый торрент трекер в рунете!

Как скачивать  ·   Что такое торрент  ·   Рейтинг и ограничения

Показать сообщения:    
Ответить на тему

Текущее время: Сегодня 13:38

Часовой пояс: GMT + 4



Вы не можете начинать темы
Вы не можете отвечать на сообщения
Вы не можете редактировать свои сообщения
Вы не можете удалять свои сообщения
Вы не можете голосовать в опросах
Вы не можете прикреплять файлы к сообщениям
Вы не можете скачивать файлы

▼ Вниз