ML
     
  Уважаемый Гость!
Вы можете поддержать проект и зарегистрироваться у наших партнеров - онлайн-стратегия MyLands. При регистрации в игре Вы получите код, который сможете активировать после регистрации на pirat.ca и получить 1000 дублонов.

Ваш код:
c89b4b6523eaac3173e9a9c062ac1a19db575961
 
     

Океаноборец / The OceanMaker (Лукас Мартелл / Lucas Martell) [2014 г., мультфильм, короткометражка, боевик, драма, приключения, HDRip]

Ответить на тему
 
Автор
Сообщение

Пост 09-Авг-2016 04:26

[Q] 

somik

Легенда

-Океаноборец / The OceanMaker-- Производство: Белиз, США, Martell Animation, Mighty Coconut, Ponysound
Режиссер: Лукас Мартелл / Lucas Martell
Жанр: мультфильм, короткометражка, боевик, драма, приключения
Год выпуска: 2014 г.
Продолжительность: 00:10:04
Мировая премьера: 24 августа 2014
Перевод: Не требуется
Описание: После исчезновения на планете морей и океанов храбрая молодая женщина-пилот сражается в небесном воздушном океане с безжалостными пиратами за контроль над последним оставшимся источником воды — облаками.-Сэмпл IMDB КиноПоиск
Качество видео: HDRip
Контейнер: AVI
Видео кодек: XviD
Аудио кодек: AC3
Видео: 720x304 (2.37:1), 23.976 fps, XviD build 67 ~1724 kbps avg, 0.33 bit/pixel
Аудио: 44.1 kHz, AC3 Dolby Digital, 2/0 (L,R) ch, ~448 kbps
Cубтитры: отсутствуют
Общее
Полное имя : J:\Океаноборец\The OceanMaker.2014.HDRip.[pirat.ca].avi
Формат : AVI
Формат/Информация : Audio Video Interleave
Размер файла : 157 Мбайт
Продолжительность : 10 м.
Общий поток : 2183 Кбит/сек
Название фильма : The OceanMaker.2014.HDRip.[pirat.ca]
Программа кодирования : Lavf57.25.100
Видео
Идентификатор : 0
Формат : MPEG-4 Visual
Профиль формата : [email protected]
Параметр BVOP формата : 1
Параметр QPel формата : Нет
Параметр GMC формата : Без точки перехода
Параметр матрицы формата : Default (H.263)
Идентификатор кодека : XVID
Идентификатор кодека/Подсказка : XviD
Продолжительность : 10 м.
Битрейт : 1725 Кбит/сек
Ширина : 720 пикселей
Высота : 304 пикселя
Соотношение сторон : 2,40:1
Частота кадров : 23,976 (24000/1001) кадра/сек
Цветовое пространство : YUV
Субдискретизация насыщенности : 4:2:0
Битовая глубина : 8 бит
Тип развёртки : Прогрессивная
Метод сжатия : С потерями
Бит/(Пиксели*Кадры) : 0.329
Размер потока : 124 Мбайт (79%)
Библиотека кодирования : XviD 67
Аудио
Идентификатор : 1
Формат : AC-3
Формат/Информация : Audio Coding 3
Расширение режима : CM (complete main)
Параметр Endianness формата : Big
Идентификатор кодека : 2000
Продолжительность : 10 м.
Вид битрейта : Постоянный
Битрейт : 448 Кбит/сек
Каналы : 2 канала
Расположение каналов : Front: L R
Частота : 44,1 КГц
Частота кадров : 28,711 кадров/сек (1536 spf)
Битовая глубина : 16 бит
Метод сжатия : С потерями
Размер потока : 32,3 Мбайт (21%)
Выравнивание : Соединение по промежуткам
Продолжительность промежутка : 35 мс. (0,83 видеокадр)
Время предзагрузки промежутка : 34 мс.
Download / Скачать

Хотите скачать бесплатно? Зарегистрируйтесь на сайте (ссылка на регистрацию). Pirat.ca - самый быстрый торрент трекер в рунете!

Как скачивать  ·   Что такое торрент  ·   Рейтинг и ограничения

Madwarg

Шкипер

Пост 11-Авг-2016 22:13 (спустя 2 дня 17 часов)

[Q] 

Отличный мульт! Лови бочку Только вот название... Перевести "Океанотворец" как "Океаноборец", дорогого стоит!

_________________
Я не Шкипер, я Морской волк! Просто немногословный... ;)
[Профиль]  [ЛС] 
Показать сообщения:    
Ответить на тему

Текущее время: Сегодня 22:32

Часовой пояс: GMT + 4



Вы не можете начинать темы
Вы не можете отвечать на сообщения
Вы не можете редактировать свои сообщения
Вы не можете удалять свои сообщения
Вы не можете голосовать в опросах
Вы не можете прикреплять файлы к сообщениям
Вы не можете скачивать файлы

▼ Вниз