ML
     
  Уважаемый Гость!
Вы можете поддержать проект и зарегистрироваться у наших партнеров - онлайн-стратегия MyLands. При регистрации в игре Вы получите код, который сможете активировать после регистрации на pirat.ca и получить 1000 дублонов.

Ваш код:
ca44e9295b9b8527ba1c339c20494f70782efea6
 
     

Дофус – Книга 1: Джулит / Dofus - Livre 1: Julith (Энтони Ру / Anthony Roux, ...) [2015 г., мультфильм, фэнтези, комедия, приключения, HDRip] VO

Ответить на тему
 
Автор
Сообщение

Пост 09-Авг-2016 14:22

[Q] 

somik

Легенда

-Дофус – Книга 1: Джулит / Dofus - Livre 1: Julith-- Производство: Франция, Ankama Animations, Centre National de la Cinématographie (CNC), France 3 Cinéma, Pictanovo Nord-Pas-de-Calais, Région Nord-Pas-de-Calais
Режиссер: Энтони Ру / Anthony Roux, ...
Жанр: мультфильм, фэнтези, комедия, приключения
Год выпуска: 2015 г.
Продолжительность: 01:47:53
Мировая премьера: 7 ноября 2015
Перевод: Любительский (одноголосый, закадровый)
Роли озвучивали: Сован Деланоэ, Жан-Клод Донда, Emmanuel Gradi, Летиция Лефевр, Франсуа Сьенер-Описание: Главного героя мультфильма зовут Йорис. Ему десять лет, и в маленьком городке Бонта малыша легко узнать по симпатичному синему капюшону. Рядом с ним уже не молодой, но верный кот Керибим, всегда готовый дать мудрый совет. У Йориса есть небольшой магазинчик, и, в принципе, мальчик абсолютно счастлив. Однако спокойная жизнь прекращается после того, как Йорис задумал отыскать своего кумира, суперзвезду Гобвола: именно в этот момент в городе появляется коварная и мстительная ведьма Джулит…-Сэмпл IMDB КиноПоиск
Качество видео: HDRip
Контейнер: AVI
Видео кодек: XviD
Аудио кодек: AC3
Видео: 720x384 (1.88:1), 25 fps, XviD build 50 ~1734 kbps avg, 0.25 bit/pixel
Аудио: 48 kHz, AC3 Dolby Digital, 2/0 (L,R) ch, ~192 kbps
Cубтитры: отсутствуют
Франция продолжает восхищать!
Ещё не было ни разу, чтобы я посмотрел французский анимационный фильм и не остался им доволен (чего, кстати, нельзя сказать ни о США, ни о России). Фильм «Дофус — книга 1: Джулит» является очередным произведением искусства, который я с чистой совестью порекомендую всем — и взрослым, и детям.
Сюжет: оригинальный, интересный и полный неожиданностей. Практически ничего в этом фильме нельзя предсказать заранее (кроме, пожалуй, того, что главный герой наверняка останется в живых) — история захватывает с первых минут и не отпускает до конца, так как сразу даёт понять, что не все антагонисты вершат зло и не все «хорошие» чисты на руку.
Стиль и проработка: продуманы до мельчайших деталей. Это целый новый мир, который, хоть и смахивает немного на типичные фентези (антропоморфные существа, магия, говорящие дома и др.), является полностью самостоятельным и неповторимым.
Исполнение: хоть это и можно отнести к аниме, свой стиль анимации здесь всё же наблюдается.
8,5 из 10
бщее
Полное имя : J:\Дофус – Книга 1\Dofus.Livre 1.2015.HDRip.[pirat.ca].avi
Формат : AVI
Формат/Информация : Audio Video Interleave
Размер файла : 1,46 Гбайт
Продолжительность : 1 ч. 47 м.
Общий поток : 1937 Кбит/сек
Название фильма : Dofus.Livre.1.2015.HDRip
Программа кодирования : VirtualDubMod 1.5.10.2 (build 2540/release)
Видео
Идентификатор : 0
Формат : MPEG-4 Visual
Профиль формата : Advanced [email protected]
Параметр BVOP формата : 2
Параметр QPel формата : Нет
Параметр GMC формата : Без точки перехода
Параметр матрицы формата : Default (MPEG)
Идентификатор кодека : XVID
Идентификатор кодека/Подсказка : XviD
Продолжительность : 1 ч. 47 м.
Битрейт : 1735 Кбит/сек
Ширина : 720 пикселей
Высота : 384 пикселя
Соотношение сторон : 1,85:1
Частота кадров : 25,000 кадров/сек
Цветовое пространство : YUV
Субдискретизация насыщенности : 4:2:0
Битовая глубина : 8 бит
Тип развёртки : Прогрессивная
Метод сжатия : С потерями
Бит/(Пиксели*Кадры) : 0.251
Размер потока : 1,31 Гбайт (90%)
Библиотека кодирования : XviD 1.2.1 (UTC 2008-12-04)
Аудио
Идентификатор : 1
Формат : AC-3
Формат/Информация : Audio Coding 3
Расширение режима : CM (complete main)
Параметр Endianness формата : Big
Идентификатор кодека : 2000
Продолжительность : 1 ч. 47 м.
Вид битрейта : Постоянный
Битрейт : 192 Кбит/сек
Каналы : 2 канала
Расположение каналов : Front: L R
Частота : 48,0 КГц
Частота кадров : 31,250 кадров/сек (1536 spf)
Метод сжатия : С потерями
Размер потока : 148 Мбайт (10%)
Выравнивание : Разделение по промежуткам
Продолжительность промежутка : 40 мс. (1,00 видеокадр)
Время предзагрузки промежутка : 500 мс.
Download / Скачать

Хотите скачать бесплатно? Зарегистрируйтесь на сайте (ссылка на регистрацию). Pirat.ca - самый быстрый торрент трекер в рунете!

Как скачивать  ·   Что такое торрент  ·   Рейтинг и ограничения

Bayron3

Штурман

91

Пост 11-Авг-2016 12:45 (спустя 1 день 22 часа)

[Q] 

Зачотный мульт Лови бочку
[Профиль]  [ЛС] 

teriv

Морской Волк

30

Пост 10-Сен-2016 20:07 (спустя 30 дней)

[Q] 

Да у меня ребенку 10 лет тоже понравился, попросил оставить для пересмотра, если честно то неожиданно для меня :).

_________________
[Профиль]  [ЛС] 
Показать сообщения:    
Ответить на тему

Текущее время: Сегодня 16:16

Часовой пояс: GMT + 4



Вы не можете начинать темы
Вы не можете отвечать на сообщения
Вы не можете редактировать свои сообщения
Вы не можете удалять свои сообщения
Вы не можете голосовать в опросах
Вы не можете прикреплять файлы к сообщениям
Вы не можете скачивать файлы

▼ Вниз