ML
     
  Уважаемый Гость!
Вы можете поддержать проект и зарегистрироваться у наших партнеров - онлайн-стратегия MyLands. При регистрации в игре Вы получите код, который сможете активировать после регистрации на pirat.ca и получить 1000 дублонов.

Ваш код:
5af7de75d3db09b6a37bc8bab71b0e87ccde73d6
 
     

Зверополис / Zootopia (Байрон Ховард / Byron Howard) [2016 г., США, мультфильм, боевик, комедия, приключения, семейный, BDRip] Dub (Лицензия Blu-ray CEE)

Ответить на тему
 
Автор
Сообщение

Пост 12-Авг-2016 12:22

[Q] 

kugesan

-Зверополис / Zootopia-«Welcome to the urban jungle»- Производство: США, Walt Disney Animation Studios
Год выпуска: 2016 г.
Жанр: мультфильм, боевик, комедия, приключения, семейный
Продолжительность: 01:48:32-Мировая премьера: 11 февраля 2016
Российская премьера: 3 марта 2016, «WDSSPR»
Дата выхода DVD: 3 июня 2016, «Уолт Дисней Компани СНГ»
Дата выхода Blu-Ray: 3 июня 2016, «Уолт Дисней Компани СНГ»-Перевод: Профессиональный (полное дублирование) Лицензия Blu-ray CEE-Режиссер: Байрон Ховард / Byron Howard, Рич Мур / Rich Moore, Джаред Буш / Jared Bush-В ролях: Джиннифер Гудвин (Judy Hopps, озвучка), Джейсон Бейтман (Nick Wilde, озвучка), Идрис Эльба (Chief Bogo, озвучка), Дженни Слейт (Bellwether, озвучка), Нейт Торренс (Clawhauser, озвучка), Бонни Хант (Bonnie Hopps, озвучка), Дон Лейк (Stu Hopps, озвучка), Томми Чонг (Yax, озвучка), Дж.К. Симмонс (Mayor Lionheart, озвучка), Октавия Спенсер (Mrs. Otterton, озвучка), Алан Тьюдик (Duke Weaselton, озвучка), Шакира (Gazelle, озвучка)-Описание:
Добро пожаловать в Зверополис — современный город, населенный самыми разными животными, от огромных слонов до крошечных мышек. Зверополис разделен на районы, полностью повторяющие естественную среду обитания разных жителей — здесь есть и элитный район Площадь Сахары и неприветливый Тундратаун. В этом городе появляется новый офицер полиции, жизнерадостная зайчиха Джуди Хоппс, которая с первых дней работы понимает, как сложно быть маленькой и пушистой среди больших и сильных полицейских. Джуди хватается за первую же возможность проявить себя, несмотря на то, что ее партнером будет болтливый хитрый лис Ник Уайлд. Вдвоем им предстоит раскрыть сложное дело, от которого будет зависеть судьба всех обитателей Зверополиса.-Качество видео: BDRip | исх. Zootopia.2016.1080p.BluRay.AVC.DTS-HD.MA.7.1 |
Контейнер: AVI
Видео кодек: XviD
Аудио кодек: AC3
Видео: MPEG-4 Visual at 1473 Кбит/сек: 720 x 304 (2.368) at 23.976 fps, 0.28 bit/pixel
Аудио: AC-3 at 448 Кбит/сек: 6 каналов, 48,0 КГц
Cубтитры: отсутствуют
- -
-
Код:
Общее
Полное имя                               : E:\_Сериалы\Фильмы\Zootopia.2016.Dub.BDRip.1.46GB.MegaPeer.avi
Формат                                   : AVI
Формат/Информация                        : Audio Video Interleave
Размер файла                             : 1,46 Гбайт
Продолжительность                        : 1 ч. 48 м.
Общий поток                              : 1928 Кбит/сек
Видео
Идентификатор                            : 0
Формат                                   : MPEG-4 Visual
Профиль формата                          : Advanced [email protected]
Параметр BVOP формата                    : 1
Параметр QPel формата                    : Нет
Параметр GMC формата                     : Без точки перехода
Параметр матрицы формата                 : Выборочная
Идентификатор кодека                     : XVID
Идентификатор кодека/Подсказка           : XviD
Продолжительность                        : 1 ч. 48 м.
Битрейт                                  : 1473 Кбит/сек
Ширина                                   : 720 пикселей
Высота                                   : 304 пикселя
Соотношение сторон                       : 2,35:1
Частота кадров                           : 23,976 (24000/1001) кадра/сек
Цветовое пространство                    : YUV
Субдискретизация насыщенности            : 4:2:0
Битовая глубина                          : 8 бит
Тип развёртки                            : Прогрессивная
Метод сжатия                             : С потерями
Бит/(Пиксели*Кадры)                      : 0.281
Размер потока                            : 1,12 Гбайт (76%)
Библиотека кодирования                   : XviD 73
Аудио
Идентификатор                            : 1
Формат                                   : AC-3
Формат/Информация                        : Audio Coding 3
Расширение режима                        : CM (complete main)
Параметр Endianness формата              : Big
Идентификатор кодека                     : 2000
Продолжительность                        : 1 ч. 48 м.
Вид битрейта                             : Постоянный
Битрейт                                  : 448 Кбит/сек
Каналы                                   : 6 каналов
Расположение каналов                     : Front: L C R, Side: L R, LFE
Частота                                  : 48,0 КГц
Частота кадров                           : 31,250 кадров/сек (1536 spf)
Метод сжатия                             : С потерями
Размер потока                            : 348 Мбайт (23%)
Выравнивание                             : Соединение по промежуткам
Продолжительность промежутка             : 64  мс. (1,53 видеокадра)
Время предзагрузки промежутка            : 192  мс.
Заголовок                                : BD CEE
Скриншоты:
Download / Скачать

Хотите скачать бесплатно? Зарегистрируйтесь на сайте (ссылка на регистрацию). Pirat.ca - самый быстрый торрент трекер в рунете!

Как скачивать  ·   Что такое торрент  ·   Рейтинг и ограничения

bnm

Штурман

Пост 12-Авг-2016 14:19 (спустя 1 час 57 минут)

[Q] 

Большое спасибо, за раздачу. Лови бочку
[Профиль]  [ЛС] 

my1979

Корсар

Пост 12-Авг-2016 20:16 (спустя 5 часов)

[Q] 

спасибо! моя дочка обожает этот мульт
[Профиль]  [ЛС] 

kugesan ®

56652

Пост 12-Авг-2016 20:20 (спустя 3 минуты)

[Q] 

Приятного просмотра!!!

_________________

В мире две бесконечности: вселенная и человеческая глупость - Альберт Эйнштен
«Можно вытащить человека из грязи, но нельзя вытащить грязь из человека»!
[Профиль]  [ЛС] 

kucha11

Корсар

Пост 12-Авг-2016 21:02 (спустя 42 минуты)

[Q] 

Спасибо!!!
[Профиль]  [ЛС] 

pvm

Корсар

Пост 13-Авг-2016 00:57 (спустя 3 часа)

[Q] 

Спасибо, хороший мульт.
[Профиль]  [ЛС] 

тэц

Шкипер

Пост 13-Авг-2016 16:21 (спустя 15 часов)

[Q] 

"спасибо спасибо спасибо" как все банально!
[Профиль]  [ЛС] 

Wolf111

57087

Пост 18-Авг-2016 22:12 (спустя 5 дней)

[Q] 

!COOL! Автору респект!!!
[Профиль]  [ЛС] 

fishman

Корсар

Пост 10-Сен-2016 17:06 (спустя 22 дня)

[Q] 

Лови бочку Всем качать!!!

_________________
|___|___|___|___|___|___|___|__|__
__|__|__|_Биться головой_|___|___|
|___|___|___|__сюда!!___|___|__|__
__|___|___|___|___|___|___|__|__
[Профиль]  [ЛС] 

Пост 17-Сен-2016 21:26 (спустя 7 дней)

Топик был перенесен из форума Новинки (HD|DVD|BD| TV|SAT|PDTV| - Rips) в форум Зарубежные полнометражные мультфильмы
aleksey99
 

Clarence

Лоцман

Пост 06-Ноя-2016 13:52 (спустя 1 месяц 25 дней)

[Q] 

Спасибо! Супер! Всем качать!!!
[Профиль]  [ЛС] 
Показать сообщения:    
Ответить на тему

Текущее время: Сегодня 14:11

Часовой пояс: GMT + 4



Вы не можете начинать темы
Вы не можете отвечать на сообщения
Вы не можете редактировать свои сообщения
Вы не можете удалять свои сообщения
Вы не можете голосовать в опросах
Вы не можете прикреплять файлы к сообщениям
Вы не можете скачивать файлы

▼ Вниз