ML
     
  Уважаемый Гость!
Вы можете поддержать проект и зарегистрироваться у наших партнеров - онлайн-стратегия MyLands. При регистрации в игре Вы получите код, который сможете активировать после регистрации на pirat.ca и получить 1000 дублонов.

Ваш код:
a261790f23fb05d13d060bdee9cb70d1451a6d3d
 
     

Бионикл: Маска света / Bionicle: Mask of Light (Дэвид Молина / David Molina, ...) [2003 г., мультфильм, фэнтези, боевик, приключения, семейный, DVDRip] Dub

Ответить на тему
 
Автор
Сообщение

Пост 24-Авг-2016 11:40

[Q] 

somik

Легенда

-Бионикл: Маска света / Bionicle: Mask of Light-- Производство: США, Create TV & Film, Creative Capers Entertainment, LEGO
Год выпуска: 2003 г.
Жанр: мультфильм, фэнтези, боевик, приключения, семейный
Продолжительность: 01:14:01
Мировая премьера: 13 сентября 2003
Перевод: Профессиональный (полное дублирование)
Режиссер: Дэвид Молина / David Molina, ...-В ролях: Джейсон Микас / Jason Michas, Эндрю Френсис / Andrew Francis, Скотт МакНил / Scott McNeil, Ли Токар / Lee Tockar, Кристофер Гейз / Christopher Gaze, Катлин Барр / Kathleen Barr
Роли дублировали: Олег Вирозуб, Михаил Тихонов, Всеволод Кузнецов, Олег Куценко, Виктор Бохон, ...-Описание: Затерянный в океане остров Мата Нуи становится ареной очередной грандиозной битвы Добра и Зла. Населяющие его роботы Матораны вновь вынуждены сразиться со своим злейшим врагом, темным владыкой Макутой, мечтающим о неограниченной власти. Всякий раз шести великим кибервоинам Тоа удавалось отстоять Мата Нуи, но на этот раз их противник могущественен как никогда. Судьба острова повисает на волоске, и победа в этой битве зависит от того, кому попадет в руки знаменитая маска Света -уникальный древний артефакт фантастической мощи, способный как спасти, так и погубить весь мир…-
Качество видео: DVDRip
Контейнер: AVI
Видео кодек: XviD
Аудио кодек: MP3
Видео: 640x384 (1.67:1), 25 fps, XviD 1.2 beta 1 (build 43) ~1185 kbps avg, 0.19 bit/pixel
Аудио: 48 kHz, MPEG Layer 3, 2 ch, ~128.00 kbps avg
Cубтитры: отсутствуют
Студия «Лего» не только копировала героев известных фильмов и комиксов, но и создавала что-то свое, например, «Биониклов». Серия игрушек стала настолько популярной, что «Лего» собрались(Не задуманная шутка) и решили экранизировать своих героев. И в 2003-ем году, проект выходит на свет, чтоб рассказать взрослым и детям удивительную историю битвы добра со злом, конечно это не супер экшн-эпопея, но детям очень хотелось увидеть героев в действии. И родители их поддержали. Многие критики поговаривали, что фильм выпустили для того, чтоб серия игрушек стала популярнее, но это было не совсем так, серия игрушек была популярной еще до выхода фильма и считать выход фильма рекламной акцией, не особенно правильно, когда сам фильм получился довольно хорошим и не уступающим многим известным студиям, хотя бы по качеству изображения и картинки. Даже если это и рекламный ход, то вряд ли это делает саму картину лучше, или хуже, это довольно второстепенно.
Поехали дальше
Маленькая эпопея рассказывает о шести героях, шести стихиях, а начинает историю с тьмы и света. Уже в раннем возрасте, ребенок может понять, что хорошо, а что плохо, фильм становится неким пособием и весьма увлекательным и показывающим маленьким мальчикам и девочкам историю, которая вуалирует в себе множество напутствий и советов, для тех кто начинают свой путь жизни и именно в раннем возрасте в детях нужно заложит нужные качества чести и справедливости и этим и занимаются герои «Бионикл:Маска Света», на протяжении 75-и минут, за это им нужно сказать спасибо, а также сказать студии «Лего».
И как поверхностно упоминалось выше, фильм образец потрясающей компьютерной анимации. Вдобавок лента хоть и не претендует на мульт-Оскары, но над ней работали талантливые люди, как сценарист Генри Гилрой, (Атлантида 2: Возвращение Майло).
Анимационный компьютерный мультфильм студи «Лего» и кинокомпании «Мирамакс», стоит хорошей оценки.
Рецензия от «Коротко о главном»
7 из 10
Общее
Полное имя : J:\Бионикл\Bionikl I-Mask Of Light.2003.[pirat.ca].avi
Формат : AVI
Формат/Информация : Audio Video Interleave
Размер файла : 701 Мбайт
Продолжительность : 1 ч. 14 м.
Общий поток : 1324 Кбит/сек
Название фильма : Bionikl I-Mask Of Light.2003.[pirat.ca]
Программа кодирования : VirtualDubMod 1.5.10.2 (build 2542/release)
Видео
Идентификатор : 0
Формат : MPEG-4 Visual
Профиль формата : Advanced [email protected]
Параметр BVOP формата : 2
Параметр QPel формата : Нет
Параметр GMC формата : Без точки перехода
Параметр матрицы формата : Default (H.263)
Идентификатор кодека : XVID
Идентификатор кодека/Подсказка : XviD
Продолжительность : 1 ч. 14 м.
Битрейт : 1186 Кбит/сек
Ширина : 640 пикселей
Высота : 384 пикселя
Соотношение сторон : 5:4
Соотношение сторон в оригинале : 5:3
Частота кадров : 25,000 кадров/сек
Цветовое пространство : YUV
Субдискретизация насыщенности : 4:2:0
Битовая глубина : 8 бит
Тип развёртки : Прогрессивная
Метод сжатия : С потерями
Бит/(Пиксели*Кадры) : 0.193
Размер потока : 628 Мбайт (90%)
Библиотека кодирования : XviD 1.2.0SMP (UTC 2006-01-08)
Аудио
Идентификатор : 1
Формат : MPEG Audio
Версия формата : Version 1
Профиль формата : Layer 3
Идентификатор кодека : 55
Идентификатор кодека/Подсказка : MP3
Продолжительность : 1 ч. 14 м.
Вид битрейта : Постоянный
Битрейт : 128 Кбит/сек
Каналы : 2 канала
Частота : 48,0 КГц
Метод сжатия : С потерями
Размер потока : 67,8 Мбайт (10%)
Выравнивание : Соединение по промежуткам
Продолжительность промежутка : 40 мс. (1,00 видеокадр)
Время предзагрузки промежутка : 504 мс.
Download / Скачать

Хотите скачать бесплатно? Зарегистрируйтесь на сайте (ссылка на регистрацию). Pirat.ca - самый быстрый торрент трекер в рунете!

Как скачивать  ·   Что такое торрент  ·   Рейтинг и ограничения

somik ®

Легенда

26957

Пост 24-Авг-2016 11:41 (спустя 1 минута)

[Q] 

Детям, увлекающимся LEGO. aa

_________________
Всё когда-нибудь уже было... В интернете!
[Профиль]  [ЛС] 

Пост 24-Авг-2016 21:33 (спустя 9 часов)

Топик был перенесен из форума Зарубежное Кино (Трюм) в форум Зарубежные полнометражные мультфильмы
ara1205
 
Показать сообщения:    
Ответить на тему

Текущее время: Сегодня 20:04

Часовой пояс: GMT + 4



Вы не можете начинать темы
Вы не можете отвечать на сообщения
Вы не можете редактировать свои сообщения
Вы не можете удалять свои сообщения
Вы не можете голосовать в опросах
Вы не можете прикреплять файлы к сообщениям
Вы не можете скачивать файлы

▼ Вниз