ML
     
  Уважаемый Гость!
Вы можете поддержать проект и зарегистрироваться у наших партнеров - онлайн-стратегия MyLands. При регистрации в игре Вы получите код, который сможете активировать после регистрации на pirat.ca и получить 1000 дублонов.

Ваш код:
db0e0ad91548759ffeb9bb88bed405e1a4b3c165
 
     

Бионикл 2: Легенда Метру Нуи / Bionicle 2: Legends of Metru Nui (Дэвид Молина / David Molina, ...) [2004 г., мультфильм, фэнтези, боевик, приключения, DVDRip] Dub

Ответить на тему
 
Автор
Сообщение

Пост 24-Авг-2016 12:02

[Q] 

somik

Легенда

-Бионикл 2: Легенда Метру Нуи / Bionicle 2: Legends of Metru Nui-- Производство: США, Creative Capers Entertainment, LEGO, Miramax Films
Год выпуска: 2004 г.
Жанр: мультфильм, фэнтези, боевик, приключения
Продолжительность: 01:12:08
Мировая премьера: 6 октября 2004
Перевод: Профессиональный (полное дублирование)
Режиссер: Дэвид Молина / David Molina, ...-В ролях: Кристофер Газе, Майкл Добсон, Пол Добсон, Полина Гиллис, Брайан Драммонд, Trevor Devall, Алессандро Джулиани, Джерард Планкет, Lee Tockar
Роли дублировали: Рудольф Панков, Всеволод Кузнецов, Александр Груздев, Денис Беспалый, ...-Описание: Когда таинственные темные силы начинают угрожать великолепному городу Метру Нуи, шести воинам придется быстро овладеть полученной силой и доказать, что они достойны быть под предводительством знаменитого вождя и спасти жителей города!-
Качество видео: DVDRip
Контейнер: AVI
Видео кодек: MPEG4 AVC
Аудио кодек: MP3
Видео: 672x384 (1.75:1), 25 fps, XviD build 65 ~1309 kbps avg, 0.20 bit/pixel
Аудио: 48 kHz, MPEG Layer 3, 2 ch, ~128.00 kbps avg
Cубтитры: отсутствуют
Старые персонажи, новые герои…
Однажды, в далёком детстве, один мой друг рассказал мне о Биониклах. О Тоа, Турагах, Мата-Нуи и Макуте. Он мог говорить о них бесконечно. С тех пор и я, до сих пор, могу рассказать вам кучу всего о защитниках острова Великого Духа. В селениях маторан (жителей этой неспокойной земли), главным уважением всегда пользовались Тураги: Вакакама, Нокама, Матау, Венуа, Онева и, наконец, Ную. Они были настоящими мурецами, знавшими много всего, чего не знали другие, ни Тоа, ни матораны.
Но всегда ли они были такими мудрецами? Турагами? Вот, собственно, о чём фильм. О маторанах, ставшими Тоа Метру. Которые научились бороться с Макутой, и сумели спасти свой родной город (остров) Метру-Нуи. И стали мудрецами, которых мы знаем по первому фильму. История мне понравилась, понравилась картинка, понравилось как рассказана история. Любопытно, что здесь в мультфильме ни словом не упоминается корень Морбузак, ужасное растение грозившее разрушить город Метру. Мне даже стало любопытно, откуда пошла эта идея с корнем. Так или иначе, даже без этой сюжетной линии, фильм порадовал. Он получился ничуть не хуже первой части. Он пронёс в себе свою собственную атмосферу, которая, между тем, явственно перекликается с атмосферой первого фильма. Тоа Метру и Тоа Нува отличаются друг от друга, у них разные характеры, разные возможности, а ведь это очень трудно уловить и тем более показать, когда увлечён какой-то идеей.
Интересным ходом было показать, цикл превращения маторан в Тоа, а Тоа в Тураг. Напоминаю, что Тоа Таху, Гали, Копака, Луа, Похату и Онуа приплыли из Океана к острову, а не жили на нём всё время! Логично предположить, что турага Дьюм тоже, когда-то был героем Тоа.
Все герои оставили приятные воспоминания о себе, кроме, разумеется Макуты. Как мультфильм по наборам «LEGO», как мультфильм о Биониклах, картинка получилась отличной. Если вы смотрели «Бионикл: Маска Света», посмотрите и «Бионикл: Легены Метру-Нуи». Вам понравиться, не сомневайтесь.
8 из 10
Общее
Полное имя : J:\Бионикл\Bionicle II-Legends of Metru Nui.2004.DVDRip.DVDRip.[pirat.ca].avi
Формат : AVI
Формат/Информация : Audio Video Interleave
Размер файла : 747 Мбайт
Продолжительность : 1 ч. 12 м.
Общий поток : 1447 Кбит/сек
Название фильма : Bionicle II-Legends of Metru Nui.2004.DVDRip.DVDRip.[pirat.ca]
Программа кодирования : VirtualDubMod 1.5.10.2 (build 2540/release)
Видео
Идентификатор : 0
Формат : MPEG-4 Visual
Профиль формата : Advanced [email protected]
Параметр BVOP формата : 1
Параметр QPel формата : Нет
Параметр GMC формата : Без точки перехода
Параметр матрицы формата : Выборочная
Идентификатор кодека : XVID
Идентификатор кодека/Подсказка : XviD
Продолжительность : 1 ч. 12 м.
Битрейт : 1310 Кбит/сек
Ширина : 672 пикселя
Высота : 384 пикселя
Соотношение сторон : 16:9
Частота кадров : 25,000 кадров/сек
Цветовое пространство : YUV
Субдискретизация насыщенности : 4:2:0
Битовая глубина : 8 бит
Тип развёртки : Прогрессивная
Метод сжатия : С потерями
Бит/(Пиксели*Кадры) : 0.203
Размер потока : 676 Мбайт (90%)
Библиотека кодирования : XviD 65
Аудио
Идентификатор : 1
Формат : MPEG Audio
Версия формата : Version 1
Профиль формата : Layer 3
Режим : Joint stereo
Расширение режима : MS Stereo
Идентификатор кодека : 55
Идентификатор кодека/Подсказка : MP3
Продолжительность : 1 ч. 12 м.
Вид битрейта : Постоянный
Битрейт : 128 Кбит/сек
Каналы : 2 канала
Частота : 48,0 КГц
Метод сжатия : С потерями
Размер потока : 66,0 Мбайт (9%)
Выравнивание : Соединение по промежуткам
Продолжительность промежутка : 40 мс. (1,00 видеокадр)
Время предзагрузки промежутка : 504 мс.
Download / Скачать

Хотите скачать бесплатно? Зарегистрируйтесь на сайте (ссылка на регистрацию). Pirat.ca - самый быстрый торрент трекер в рунете!

Как скачивать  ·   Что такое торрент  ·   Рейтинг и ограничения

Пост 24-Авг-2016 21:34 (спустя 9 часов)

Топик был перенесен из форума Зарубежное Кино (Трюм) в форум Зарубежные полнометражные мультфильмы
ara1205
 
Показать сообщения:    
Ответить на тему

Текущее время: Сегодня 08:05

Часовой пояс: GMT + 4



Вы не можете начинать темы
Вы не можете отвечать на сообщения
Вы не можете редактировать свои сообщения
Вы не можете удалять свои сообщения
Вы не можете голосовать в опросах
Вы не можете прикреплять файлы к сообщениям
Вы не можете скачивать файлы

▼ Вниз