ML
     
  Уважаемый Гость!
Вы можете поддержать проект и зарегистрироваться у наших партнеров - онлайн-стратегия MyLands. При регистрации в игре Вы получите код, который сможете активировать после регистрации на pirat.ca и получить 1000 дублонов.

Ваш код:
6f9ab67d502902cc72a06c406977ddb589b7f39d
 
     

Бионикл 3: В паутине теней / Bionicle 3: Web of Shadows (Дэвид Молина / David Molina, ...) [2005 г., мультфильм, фантастика, приключения, DVDRip] Dub

Ответить на тему
 
Автор
Сообщение

Пост 24-Авг-2016 12:20

[Q] 

somik

Легенда

-Бионикл 3: В паутине теней / Bionicle 3: Web of Shadows-- Производство: США, Creative Capers Entertainment, Good Story Productions, LEGO, Miramax Films
Год выпуска: 2005 г.
Жанр: мультфильм, фантастика, приключения
Продолжительность: 01:15:03
Мировая премьера: 11 октября 2005
Перевод: Профессиональный (полное дублирование)
Режиссер: Дэвид Молина / David Molina, ...-В ролях: Kathleen Barr, Trevor Devall, Paul Dobson-Описание: Перед тем, как выполнить свой последний долг и построить свой собственный дом на острове Мата Нуи, шестеро великих героев Тоа возвращаются в Метру Нуи и находят свой, когда-то великий город, окутанный тенью и паучьей сетью, сплел которую коварный Висорак.
Превратившись в странных монстрообразных существ, известных как Тоа Хордика, герои Тоа начинают свою миссию по освобождению Маторана, захваченного в сети темными силами — битва предстоит кровавая!-
Качество видео: DVDRip
Контейнер: AVI
Видео кодек: XviD
Аудио кодек: MP3
Видео: 624x352 (1.77:1), 25 fps, XviD MPEG-4 ~1161 kbps avg, 0.21 bit/pixel
Аудио: 48 kHz, MPEG Layer 3, 2 ch, ~128.00 kbps avg
Cубтитры: отсутствуют
Самый серьёзный фильм Трилогии.
Итак, герои вернулись. Их родной город Метру-Нуи изменился. И далеко не в лучшую сторону. Теперь Тоа предстоит снова спасти Маторанов от новых врагов.
Этот мультфильм совсем не похож на два предыдущих. Он мне показался «взрослее» предшественников, жестче и динамичнее. Видимо растет аудитория, поэтому и надо сюжет изменять.
В мультфильме поднимаются проблемы лидерства, единства и власти. Несмотря на то что главные герои — Биониклы, мультфильм советую посмотреть взрослым.
Легенда продолжается. Ждём следующей главы.
Общее
Полное имя : J:\Бионикл\Bionikl III-Web of Shadows.2005.DVDRip.[pirat.ca].avi
Формат : AVI
Формат/Информация : Audio Video Interleave
Размер файла : 697 Мбайт
Продолжительность : 1 ч. 15 м.
Общий поток : 1299 Кбит/сек
Название фильма : Bionikl III-Web of Shadows.2005.DVDRip.[pirat.ca]
Программа кодирования : VirtualDubMod 1.5.10.2 (build 2542/release)
Видео
Идентификатор : 0
Формат : MPEG-4 Visual
Профиль формата : Advanced [email protected]
Параметр BVOP формата : 2
Параметр QPel формата : Нет
Параметр GMC формата : Без точки перехода
Параметр матрицы формата : Default (H.263)
Режим смешивания : Сжатый битовый поток
Идентификатор кодека : XVID
Идентификатор кодека/Подсказка : XviD
Продолжительность : 1 ч. 15 м.
Битрейт : 1161 Кбит/сек
Ширина : 624 пикселя
Высота : 352 пикселя
Соотношение сторон : 16:9
Частота кадров : 25,000 кадров/сек
Цветовое пространство : YUV
Субдискретизация насыщенности : 4:2:0
Битовая глубина : 8 бит
Тип развёртки : Прогрессивная
Метод сжатия : С потерями
Бит/(Пиксели*Кадры) : 0.211
Размер потока : 623 Мбайт (89%)
Библиотека кодирования : XviD 1.1.0 (UTC 2005-11-22)
Аудио
Идентификатор : 1
Формат : MPEG Audio
Версия формата : Version 1
Профиль формата : Layer 3
Режим : Joint stereo
Расширение режима : MS Stereo
Идентификатор кодека : 55
Идентификатор кодека/Подсказка : MP3
Продолжительность : 1 ч. 15 м.
Вид битрейта : Постоянный
Битрейт : 128 Кбит/сек
Каналы : 2 канала
Частота : 48,0 КГц
Метод сжатия : С потерями
Размер потока : 68,7 Мбайт (10%)
Выравнивание : Соединение по промежуткам
Продолжительность промежутка : 40 мс. (1,00 видеокадр)
Время предзагрузки промежутка : 504 мс.
Download / Скачать

Хотите скачать бесплатно? Зарегистрируйтесь на сайте (ссылка на регистрацию). Pirat.ca - самый быстрый торрент трекер в рунете!

Как скачивать  ·   Что такое торрент  ·   Рейтинг и ограничения

Пост 24-Авг-2016 21:35 (спустя 9 часов)

Топик был перенесен из форума Зарубежное Кино (Трюм) в форум Зарубежные полнометражные мультфильмы
ara1205
 
Показать сообщения:    
Ответить на тему

Текущее время: Сегодня 16:33

Часовой пояс: GMT + 4



Вы не можете начинать темы
Вы не можете отвечать на сообщения
Вы не можете редактировать свои сообщения
Вы не можете удалять свои сообщения
Вы не можете голосовать в опросах
Вы не можете прикреплять файлы к сообщениям
Вы не можете скачивать файлы

▼ Вниз