ML
     
  Уважаемый Гость!
Вы можете поддержать проект и зарегистрироваться у наших партнеров - онлайн-стратегия MyLands. При регистрации в игре Вы получите код, который сможете активировать после регистрации на pirat.ca и получить 1000 дублонов.

Ваш код:
2932e5898d0a27592397f70b82a5834d1e70ea19
 
     

Бионикл: Легенда возрождается / Bionicle: The Legend Reborn (Марк Балдо / Mark Baldo) [2009 г., мультфильм, боевик, приключения, HDTVRip] Dub

Ответить на тему
 
Автор
Сообщение

Пост 24-Авг-2016 12:41

[Q] 

somik

Легенда

-Бионикл: Легенда возрождается / Bionicle: The Legend Reborn-- Производство: США, LEGO, Threshold Animation Studios, Tinseltown Toons
Год выпуска: 2009 г.
Жанр: мультфильм, боевик, приключения
Продолжительность: 01:17:03
Мировая премьера: 24 августа 2009
Дата выхода DVD: 8 сентября 2009, «Юниверсал Пикчерс Рус»
Перевод: Профессиональный (полное дублирование) [Пифагор 2009]
Режиссер: Марк Балдо / Mark Baldo-В ролях: Всеволод Кузнецов, Андрей Ярославцев, Прохор Чеховской, Константин Карасик, Рамиля Искандер, ...-Описание: Мата Нуи, некогда великий и могущественный лидер, очнулся на захламленной металлоломом пустоши вдали от дома. После победы в соревнованиях гладиаторов местные жители просят его сразиться с реальными врагами: жестоким Скраллом и Охотниками за костями. Вместе с отважной командой гладиаторов и крестьян Агори Мата Нуи отправляется в эпическое путешествие в новые неведомые страны, чтобы раскрыть удивительные тайны «Бионикла».-
Качество видео: HDTVRip
Контейнер: AVI
Видео кодек: XviD
Аудио кодек: MP3
Видео: 688x384 (1.79:1), 25 fps, XviD build 47 ~1217 kbps avg, 0.18 bit/pixel
Аудио: 48 kHz, MPEG Layer 3, 2 ch, ~128.00 kbps avg
Cубтитры: отсутствуют
Бионикл 4: Разочарование
Казалось бы странно, глубокий старик пишет отзыв на фильм, основанный на серии игрушек ЛЕГО для детей. Но Бионикл были для меня не просто серией игрушек (в отличие от нашумевших трансформеров, которые по сути куда более детские чем Биониклы). Вселенная мира Bionicle завораживала прежде всего своей эпичностью, мифологией, символичностью. И пусть её герои мало походили на людей, им сопереживаешь и привязываешься к ним. Этим духом пропитаны все три фильма от студии Miramax. И я памятую о увлечении детства решил посмотреть этот фильм.
Жаль что хорошую историю Биониклов превратили в мыльную оперу на подобии бесконечных фантастических мультсериалов о роботах.
Ни одного намёка на старых персонажей, места действия, события. Ранее закадровый Мата-Нуи — теперь титан в золотой броне. Да, я так и представлял себе Великого духа из 1 части..
Сюжет банален, конец скомкан, персонажи не прописаны. Смена студии пошла только во вред. Я уверен что Miramax сняли бы лучше, будь они сейчас «живы»
6 из 10
только из уважения к Биониклам
Общее
Полное имя : J:\Бионикл\Bionikl IV-The Legend Reborn.2009.HDTVRip.[pirat.ca].avi
Формат : AVI
Формат/Информация : Audio Video Interleave
Размер файла : 747 Мбайт
Продолжительность : 1 ч. 17 м.
Общий поток : 1355 Кбит/сек
Название фильма : Bionikl IV-The Legend Reborn.2009.HDTVRip.[pirat.ca]
Программа кодирования : VirtualDubMod 1.5.10.2 (build 2540/release)
Видео
Идентификатор : 0
Формат : MPEG-4 Visual
Профиль формата : Advanced [email protected]
Параметр BVOP формата : 1
Параметр QPel формата : Нет
Параметр GMC формата : Без точки перехода
Параметр матрицы формата : Default (MPEG)
Идентификатор кодека : XVID
Идентификатор кодека/Подсказка : XviD
Продолжительность : 1 ч. 17 м.
Битрейт : 1218 Кбит/сек
Ширина : 688 пикселей
Высота : 384 пикселя
Соотношение сторон : 16:9
Частота кадров : 25,000 кадров/сек
Цветовое пространство : YUV
Субдискретизация насыщенности : 4:2:0
Битовая глубина : 8 бит
Тип развёртки : Прогрессивная
Метод сжатия : С потерями
Бит/(Пиксели*Кадры) : 0.184
Размер потока : 671 Мбайт (90%)
Библиотека кодирования : XviD 1.2.0.dev47 (UTC 2006-11-01)
Аудио
Идентификатор : 1
Формат : MPEG Audio
Версия формата : Version 1
Профиль формата : Layer 3
Идентификатор кодека : 55
Идентификатор кодека/Подсказка : MP3
Продолжительность : 1 ч. 17 м.
Вид битрейта : Постоянный
Битрейт : 128 Кбит/сек
Каналы : 2 канала
Частота : 48,0 КГц
Метод сжатия : С потерями
Размер потока : 70,6 Мбайт (9%)
Выравнивание : Соединение по промежуткам
Продолжительность промежутка : 40 мс. (1,00 видеокадр)
Время предзагрузки промежутка : 504 мс.
Библиотека кодирования : LAME3.97
Настройки программы : -m s -V 4 -q 2 -lowpass 17 -b 128
Download / Скачать

Хотите скачать бесплатно? Зарегистрируйтесь на сайте (ссылка на регистрацию). Pirat.ca - самый быстрый торрент трекер в рунете!

Как скачивать  ·   Что такое торрент  ·   Рейтинг и ограничения

Пост 24-Авг-2016 21:36 (спустя 8 часов)

Топик был перенесен из форума Зарубежное Кино (Трюм) в форум Зарубежные полнометражные мультфильмы
ara1205
 
Показать сообщения:    
Ответить на тему

Текущее время: Сегодня 08:03

Часовой пояс: GMT + 4



Вы не можете начинать темы
Вы не можете отвечать на сообщения
Вы не можете редактировать свои сообщения
Вы не можете удалять свои сообщения
Вы не можете голосовать в опросах
Вы не можете прикреплять файлы к сообщениям
Вы не можете скачивать файлы

▼ Вниз