ML
     
  Уважаемый Гость!
Вы можете поддержать проект и зарегистрироваться у наших партнеров - онлайн-стратегия MyLands. При регистрации в игре Вы получите код, который сможете активировать после регистрации на pirat.ca и получить 1000 дублонов.

Ваш код:
8b752b428cf60a012c159dcae592cd1392170115
 
     

Барток Великолепный / Bartok the Magnificent (Дон Блут / Don Bluth, Гари Голдман / Gary Goldman) [1999 г., мультфильм, семейный, DVDRip] Dub [Первый канал] + MVO [Ukrainian 1+1] + Original (Eng)

Ответить на тему
 
Автор
Сообщение

Пост 24-Авг-2016 20:41

[Q] 

somik

Легенда

-Барток Великолепный / Bartok the Magnificent-- Производство: США, Fox Animation Studios
Год выпуска: 1999 г.
Жанр: мультфильм, семейный
Продолжительность: 01:05:20
Мировая премьера: 16 ноября 1999
Дата выхода DVD: 22 августа 2006, «Двадцатый Век Фокс СНГ»
Перевод: Профессиональный (полное дублирование) [Первый канал]
Перевод 2: Профессиональный (многоголосый, закадровый) [Ukrainian 1+1]
Оригинальный аудиопоток: английский
Режиссер: Дон Блут / Don Bluth, Гари Голдман / Gary Goldman-В ролях: Хэнк Азария, Келси Грэммер, Андреа Мартин, Кэтрин О’Хара, Тим Карри, Дженнифер Тилли, Филлип Ван Дайк, Дидрих Бадер, Келли Мари Бергер, Тед Брунетти.
Роли дублировали: Дмитрий Филимонов, Виктор Петров, Людмила Гнилова, Ольга Голованова, Никита Прозоровский, ...-Описание: Барток — любитель уличных представлений. Он может всем и всегда рассказывать, какой он герой, хотя на самом деле он просто трусливый хвастунишка, и когда приходится доказывать свою храбрость на деле — он трусит.
Но когда молодого царевича Ивана похищают, нужен настоящий герой, чтобы победить злую Бабу-ягу и не допустить злую регентшу Людмилу на российский трон. И вот Бартоку приходится самому браться за спасение наследника и найти в себе мужество довести его до конца.-
Качество видео: DVDRip
Контейнер: AVI
Видео кодек: XviD
Аудио кодек: AC3
Видео: 720x544 (1.32:1), 25 fps, XviD build 47 ~2346 kbps avg, 0.24 bit/pixel
Аудио: 48 kHz, AC3 Dolby Digital, 2/0 (L,R) ch, ~192 kbps - Russian
Аудио #2: 48 kHz, AC3 Dolby Digital, 2/0 (L,R) ch, ~192 kbps - Ukrainian
Аудио #3: 48 kHz, AC3 Dolby Digital, 2/0 (L,R) ch, ~192 kbps - English
Cубтитры: отсутствуют
По мотивам русских-народных…
Итак, сразу к сюжету. Барток (знакомый нам по м/ф «Анастасия «) оказывается замешан в авантюру с похищенным наследником московского престола, регентами, претендующими на власть, и ночным кошаром всея руси — Бабой-Ягой! Силушкой богатырской наш герой явно обделен, поэтому приходится ему выкручиваться, вооруживщись своей соображалкой да чувством юмора.
А теперь к сути. В целом, мультфильм неплохой. Но интересен он будет только детям, причем дошкольного или первошкольного возраста. Если сравнивать с той же «Анастасией», то сюжету «Бартока» не хватает глубины, душевных терзаний/переживаний, поучительных моментов. «Анастасия» заставляет сопереживать, задуматься над ценностью семейных и дружеских отношений… Она напоминает о каких-то первоосновных, базисных истинах, о которых мы все знали в детстве, но забываем во взрослой жизни.
Сюжет «Бартока» — квест: пошел выполнил задание — вернулся, получил ещё одно задание — в конце сразился с главным боссом.
Кстати, нет никаких ссылок на историю «Анастасии» (это ни плохо, ни хорошо, их просто нет). И ещё пару слов о юморе главного героя. Он мог бы проявляться и почаще. Но, если вспомнить, что я уже наградила м/ф рейтингом «для дошколят», то в целом картина довольно гармоничная.
Итак, поставьте мультик своим детям, а сами идите пить кофе или заниматься более интересными вещами.
Общее
Полное имя : J:\Барток Великолепный\Bartok the Magnificent.1999.[pirat.ca].avi
Формат : AVI
Формат/Информация : Audio Video Interleave
Размер файла : 1,34 Гбайт
Продолжительность : 1 ч. 5 м.
Общий поток : 2944 Кбит/сек
Название фильма : Bartok the Magnificent.1999.[pirat.ca]
Программа кодирования : VirtualDubMod 1.5.4.1 (build 2178/release)
Видео
Идентификатор : 0
Формат : MPEG-4 Visual
Профиль формата : Advanced [email protected]
Параметр BVOP формата : 1
Параметр QPel формата : Нет
Параметр GMC формата : Без точки перехода
Параметр матрицы формата : Выборочная
Идентификатор кодека : XVID
Идентификатор кодека/Подсказка : XviD
Продолжительность : 1 ч. 5 м.
Битрейт : 2348 Кбит/сек
Ширина : 720 пикселей
Высота : 544 пикселя
Соотношение сторон : 4:3
Частота кадров : 25,000 кадров/сек
Цветовое пространство : YUV
Субдискретизация насыщенности : 4:2:0
Битовая глубина : 8 бит
Тип развёртки : Прогрессивная
Метод сжатия : С потерями
Бит/(Пиксели*Кадры) : 0.240
Размер потока : 1,07 Гбайт (80%)
Библиотека кодирования : XviD 1.2.0.dev47 (UTC 2006-11-01)
Аудио #1
Идентификатор : 1
Формат : AC-3
Формат/Информация : Audio Coding 3
Расширение режима : CM (complete main)
Параметр Endianness формата : Big
Идентификатор кодека : 2000
Продолжительность : 1 ч. 5 м.
Вид битрейта : Постоянный
Битрейт : 192 Кбит/сек
Каналы : 2 канала
Расположение каналов : Front: L R
Частота : 48,0 КГц
Частота кадров : 31,250 кадров/сек (1536 spf)
Метод сжатия : С потерями
Размер потока : 89,7 Мбайт (7%)
Выравнивание : Разделение по промежуткам
Продолжительность промежутка : 40 мс. (1,00 видеокадр)
Время предзагрузки промежутка : 500 мс.
Заголовок : Russian
Аудио #2
Идентификатор : 2
Формат : AC-3
Формат/Информация : Audio Coding 3
Расширение режима : CM (complete main)
Параметр Endianness формата : Big
Идентификатор кодека : 2000
Продолжительность : 1 ч. 5 м.
Вид битрейта : Постоянный
Битрейт : 192 Кбит/сек
Каналы : 2 канала
Расположение каналов : Front: L R
Частота : 48,0 КГц
Частота кадров : 31,250 кадров/сек (1536 spf)
Метод сжатия : С потерями
Размер потока : 89,7 Мбайт (7%)
Выравнивание : Разделение по промежуткам
Продолжительность промежутка : 40 мс. (1,00 видеокадр)
Время предзагрузки промежутка : 500 мс.
Заголовок : Ukrainian
Аудио #3
Идентификатор : 3
Формат : AC-3
Формат/Информация : Audio Coding 3
Расширение режима : CM (complete main)
Параметр Endianness формата : Big
Идентификатор кодека : 2000
Продолжительность : 1 ч. 5 м.
Вид битрейта : Постоянный
Битрейт : 192 Кбит/сек
Каналы : 2 канала
Расположение каналов : Front: L R
Частота : 48,0 КГц
Частота кадров : 31,250 кадров/сек (1536 spf)
Метод сжатия : С потерями
Размер потока : 89,7 Мбайт (7%)
Выравнивание : Разделение по промежуткам
Продолжительность промежутка : 40 мс. (1,00 видеокадр)
Время предзагрузки промежутка : 500 мс.
Заголовок : English
Download / Скачать

Хотите скачать бесплатно? Зарегистрируйтесь на сайте (ссылка на регистрацию). Pirat.ca - самый быстрый торрент трекер в рунете!

Как скачивать  ·   Что такое торрент  ·   Рейтинг и ограничения

Пост 24-Авг-2016 21:55 (спустя 1 час 14 минут)

Топик был перенесен из форума Зарубежное Кино (Трюм) в форум Зарубежные полнометражные мультфильмы
ara1205
 
Показать сообщения:    
Ответить на тему

Текущее время: Сегодня 06:20

Часовой пояс: GMT + 4



Вы не можете начинать темы
Вы не можете отвечать на сообщения
Вы не можете редактировать свои сообщения
Вы не можете удалять свои сообщения
Вы не можете голосовать в опросах
Вы не можете прикреплять файлы к сообщениям
Вы не можете скачивать файлы

▼ Вниз