ML
     
  Уважаемый Гость!
Вы можете поддержать проект и зарегистрироваться у наших партнеров - онлайн-стратегия MyLands. При регистрации в игре Вы получите код, который сможете активировать после регистрации на pirat.ca и получить 1000 дублонов.

Ваш код:
db0e0ad91548759ffeb9bb88bed405e1a4b3c165
 
     

Аврора / Umi no ourora (Ёсинори Сугано / Yoshinori Sugano) [2000 г., мультфильм, фантастика, боевик, приключения, DVDRip] VO

Ответить на тему
 
Автор
Сообщение

Пост 24-Авг-2016 23:49

[Q] 

somik

Легенда

-Аврора / Umi no ourora-- Производство: Япония, Nihon Television Network
Год выпуска: 2000 г.
Жанр: мультфильм, фантастика, боевик, приключения
Продолжительность: 01:31:34
Мировая премьера: 5 августа 2000
Перевод: Любительский (одноголосый, закадровый)
Режиссер: Ёсинори Сугано / Yoshinori Sugano-В ролях: Сигэру Тиба, Тосио Фурукава, Такая Хаси, Мэгуми Хаясибара, Иссей Ишида, Джуничи Ишида, Хироши Ивасаки, Акира Камия, Рюта Кавабата, Наоки Макисима, ...-Описание: Глубоководный археолог Хироши Ибуки — член команды диггеров, работающей на дне моря. Они пытаются раскрыть загадку рождения Земли, но вместо этого находят таинственную колонию бактерий. Восстановленные, древние бактерии пытаются сделать мир пригодным для своей жизни, создавая процесс, который вернул бы Землю на её раннюю основную форму, убив всю нынешнюю жизнь!-
Качество видео: DVDRip
Контейнер: AVI
Видео кодек: DivX
Аудио кодек: MP3
Видео: 560x320 (1.75:1), 29.970 fps, DivX Codec 4.x ~899 kbps avg, 0.17 bit/pixel
Аудио: 48 kHz, MPEG Layer 3, 2 ch, ~128.00 kbps avg
Cубтитры: отсутствуют
Общее
Полное имя : J:\!Аврора\Aurora.2000.DVDRip.[pirat.ca].avi
Формат : AVI
Формат/Информация : Audio Video Interleave
Размер файла : 675 Мбайт
Продолжительность : 1 ч. 31 м.
Общий поток : 1036 Кбит/сек
Видео
Идентификатор : 0
Формат : MPEG-4 Visual
Параметр BVOP формата : 1
Параметр QPel формата : Нет
Параметр GMC формата : Без точки перехода
Параметр матрицы формата : Default (H.263)
Режим смешивания : Сжатый битовый поток
Идентификатор кодека : DIVX
Идентификатор кодека/Информация : Project Mayo
Идентификатор кодека/Подсказка : DivX 4
Продолжительность : 1 ч. 31 м.
Битрейт : 899 Кбит/сек
Ширина : 560 пикселей
Высота : 320 пикселей
Соотношение сторон : 16:9
Частота кадров : 29,970 кадров/сек
Цветовое пространство : YUV
Субдискретизация насыщенности : 4:2:0
Битовая глубина : 8 бит
Тип развёртки : Прогрессивная
Метод сжатия : С потерями
Бит/(Пиксели*Кадры) : 0.167
Размер потока : 586 Мбайт (87%)
Библиотека кодирования : DivX 5.1.1 (Maupiti) (UTC 2003-11-19)
Аудио
Идентификатор : 1
Формат : MPEG Audio
Версия формата : Version 1
Профиль формата : Layer 3
Идентификатор кодека : 55
Идентификатор кодека/Подсказка : MP3
Продолжительность : 1 ч. 31 м.
Вид битрейта : Постоянный
Битрейт : 128 Кбит/сек
Каналы : 2 канала
Частота : 48,0 КГц
Метод сжатия : С потерями
Размер потока : 83,4 Мбайт (12%)
Выравнивание : Разделение по промежуткам
Продолжительность промежутка : 968 мс. (29,00 видеокадров)
Download / Скачать

Хотите скачать бесплатно? Зарегистрируйтесь на сайте (ссылка на регистрацию). Pirat.ca - самый быстрый торрент трекер в рунете!

Как скачивать  ·   Что такое торрент  ·   Рейтинг и ограничения

Пост 26-Авг-2016 08:42 (спустя 1 день 8 часов)

Топик был перенесен из форума Мультфильмы (Трюм) в форум Зарубежные полнометражные мультфильмы
erchine
 
Показать сообщения:    
Ответить на тему

Текущее время: Сегодня 08:06

Часовой пояс: GMT + 4



Вы не можете начинать темы
Вы не можете отвечать на сообщения
Вы не можете редактировать свои сообщения
Вы не можете удалять свои сообщения
Вы не можете голосовать в опросах
Вы не можете прикреплять файлы к сообщениям
Вы не можете скачивать файлы

▼ Вниз