ML
     
  Уважаемый Гость!
Вы можете поддержать проект и зарегистрироваться у наших партнеров - онлайн-стратегия MyLands. При регистрации в игре Вы получите код, который сможете активировать после регистрации на pirat.ca и получить 1000 дублонов.

Ваш код:
ba41f7961e0b4717aed6a401d955262223b8f6c4
 
     

Кингсглейв: Последняя фантазия XV / Kingsglaive: Final Fantasy XV (Такэси Нодзуэ / Takeshi Nozue) [2016 г., мультфильм, фантастика, боевик, WEB-DLRip] MVO [iTunes]

Ответить на тему
 
Автор
Сообщение

Пост 30-Авг-2016 03:30

[Q] 

somik

Легенда

-Кингсглейв: Последняя фантазия XV / Kingsglaive: Final Fantasy XV-- Производство: Япония, Square Enix Co. Ltd., Square USA, ...
Режиссер: Такэси Нодзуэ / Takeshi Nozue
Жанр: мультфильм, фантастика, боевик
Год выпуска: 2016 г.
Продолжительность: 01:55:32
Мировая премьера: 9 июля 2016
Перевод: Профессиональный (многоголосый, закадровый) [iTunes]
Роли озвучивали: Аарон Пол, Лина Хиди, Шон Бин, Нейл Ньюбон, Аманда Пиери, Джон Кэмплинг, Адриан Буше, Liam Mulvey, Андреа Тивадар, Грег Блэкфорд-Описание: Волшебное королевство Люцис является домом для священного Кристалла, но враждебная империя Нифльхейм не остановится ни перед чем, чтобы захватить реликвию. Король Люциса Регис возглавляет элитный отряд солдат, именуемых «Кингсглейв». Вооружившись магией короля, Никс Ульрик и его верные товарищи из Кингсглейв становятся на защиту столицы Инсомния, чтобы остановить неумолимое наступление имперской армии.
Перед превосходящими силами Нифльхейма Королю Регису ничего не остаётся, как согласиться на ультиматум, уступив все свои земли за пределами столицы и женив своего сына Ноктиса на Леди Лунафрее, бывшей принцессе ныне захваченной земли Тенебра.
В разбушевавшейся войне махинации Нифльхейма превращают Инсомнию в грандиозное поле битвы, затягивая Никса в борьбу за выживание всего королевства.-Сэмпл IMDB КиноПоиск
Качество видео: WEB-DLRip
Контейнер: AVI
Видео кодек: XviD
Аудио кодек: AC3
Видео: 720x304 (2.37:1), 23.976 fps, XviD build 50 ~1416 kbps avg, 0.27 bit/pixel
Аудио: 48 kHz, AC3 Dolby Digital, 3/2 (L,C,R,l,r) + LFE ch, ~384 kbps
Cубтитры: отсутствуют
Общее
Полное имя : C:\герои 7\Кингсглейв\Kingsleyv.2016.WEB-DLRip.[pirat.ca].avi
Формат : AVI
Формат/Информация : Audio Video Interleave
Размер файла : 1,46 Гбайт
Продолжительность : 1 ч. 55 м.
Общий поток : 1810 Кбит/сек
Название фильма : Kingsleyv.2016.WEB-DLRip.[pirat.ca]
Программа кодирования : VirtualDubMod 1.5.10.3 | www.virtualdub-fr.org || (build 2550/release)
Видео
Идентификатор : 0
Формат : MPEG-4 Visual
Профиль формата : Advanced [email protected]
Параметр BVOP формата : 2
Параметр QPel формата : Нет
Параметр GMC формата : Без точки перехода
Параметр матрицы формата : Default (MPEG)
Идентификатор кодека : XVID
Идентификатор кодека/Подсказка : XviD
Продолжительность : 1 ч. 55 м.
Битрейт : 1417 Кбит/сек
Ширина : 720 пикселей
Высота : 304 пикселя
Соотношение сторон : 2,35:1
Частота кадров : 23,976 (23976/1000) кадра/сек
Цветовое пространство : YUV
Субдискретизация насыщенности : 4:2:0
Битовая глубина : 8 бит
Тип развёртки : Прогрессивная
Метод сжатия : С потерями
Бит/(Пиксели*Кадры) : 0.270
Размер потока : 1,14 Гбайт (78%)
Библиотека кодирования : XviD 1.2.1 (UTC 2008-12-04)
Аудио
Идентификатор : 1
Формат : AC-3
Формат/Информация : Audio Coding 3
Расширение режима : CM (complete main)
Параметр Endianness формата : Big
Идентификатор кодека : 2000
Продолжительность : 1 ч. 55 м.
Вид битрейта : Постоянный
Битрейт : 384 Кбит/сек
Каналы : 6 каналов
Расположение каналов : Front: L C R, Side: L R, LFE
Частота : 48,0 КГц
Частота кадров : 31,250 кадров/сек (1536 spf)
Метод сжатия : С потерями
Размер потока : 317 Мбайт (21%)
Выравнивание : Разделение по промежуткам
Продолжительность промежутка : 42 мс. (1,00 видеокадр)
Время предзагрузки промежутка : 500 мс.
Download / Скачать

Хотите скачать бесплатно? Зарегистрируйтесь на сайте (ссылка на регистрацию). Pirat.ca - самый быстрый торрент трекер в рунете!

Как скачивать  ·   Что такое торрент  ·   Рейтинг и ограничения

Пост 02-Сен-2016 14:32 (спустя 3 дня)

Топик был перенесен из форума Мультфильмы (Трюм) в форум Новинки (HD|DVD|BD| TV|SAT|PDTV| - Rips)
erchine
 

ab999

Шкипер

Пост 06-Сен-2016 00:36 (спустя 6 дней)

[Q] 

вчера посмотрел онлайн, и это трудно назвать мультфильмом. продолжение фф в очередной раз удивило и потрясло качеством выполнения. забираю в коллекцию и буду с нетерпением ждать 2к качества. Автору респект!!!
[Профиль]  [ЛС] 

kosmo72rus

Корсар

Пост 08-Сен-2016 13:03 (спустя 2 дня 12 часов)

[Q] 

Забираю! Лови бочку

_________________
[Профиль]  [ЛС] 

OLEG_PS2009

Флибустьер

Пост 14-Сен-2016 09:53 (спустя 5 дней)

[Q] 

Супер анимация!!! Мне понравилось
[Профиль]  [ЛС] 

baltimor30

Морской Волк

Пост 23-Сен-2016 08:47 (спустя 8 дней)

[Q] 

Вау, давай еще, супер, правда концовка загадочная, но реально графика на высоте. Всем качать!!!
[Профиль]  [ЛС] 

Михаэль12345

Шкипер

Пост 25-Сен-2016 23:29 (спустя 2 дня 14 часов)

[Q] 

Довольна интересная смесь кино и графики, концовка невнятная - в остальном класс! Спасибо!!!
[Профиль]  [ЛС] 

somik ®

Легенда

27159

Пост 26-Сен-2016 00:56 (спустя 1 час 27 минут)

[Q] 

766787Вау, давай еще, супер, правда концовка загадочная, но реально графика на высоте.
767206Довольна интересная смесь кино и графики, концовка невнятная - в остальном класс!
Планируется ещё три фильма полного метра и сериал, в случае успеха. Я думаю уже, что будет. Дожить бы! aa

_________________
Всё когда-нибудь уже было... В интернете!
[Профиль]  [ЛС] 
Показать сообщения:    
Ответить на тему

Текущее время: Сегодня 14:49

Часовой пояс: GMT + 4



Вы не можете начинать темы
Вы не можете отвечать на сообщения
Вы не можете редактировать свои сообщения
Вы не можете удалять свои сообщения
Вы не можете голосовать в опросах
Вы не можете прикреплять файлы к сообщениям
Вы не можете скачивать файлы

▼ Вниз