ML
     
  Уважаемый Гость!
Вы можете поддержать проект и зарегистрироваться у наших партнеров - онлайн-стратегия MyLands. При регистрации в игре Вы получите код, который сможете активировать после регистрации на pirat.ca и получить 1000 дублонов.

Ваш код:
822959f93c00d34653763d5bbf9ee9a7134af98a
 
     

Тайная жизнь домашних животных / The Secret Life of Pets (Ярроу Чейни / Yarrow Cheney, ...) [2015 г., мультфильм, комедия, семейный, WEB-DLRip] Dub [iTunes]

Ответить на тему
 
Автор
Сообщение

Пост 02-Сен-2016 09:58

[Q] 

somik

Легенда

-Тайная жизнь домашних животных / The Secret Life of Pets-- Производство: Япония, США
Режиссер: Ярроу Чейни / Yarrow Cheney, ...
Жанр: мультфильм, комедия, семейный
Год выпуска: 2015 г.
Продолжительность: 01:26:25
Мировая премьера: 16 июня 2016
Российская премьера: 18 августа 2016, «UPI»
Перевод: Профессиональный (полное дублирование) [iTunes]
Роли озвучивали: Луис С.К., Эрик Стоунстрит, Кевин Харт, Дженни Слейт, Элли Кемпер, Альберт Брукс, Лэйк Белл, Дэна Карви, Хэннибал Бёресс, Бобби Мойнахан
Сергей Смирнов, Юрий Брежнев, Илья Исаев, Вероника Саркисова, Ирина Киреева, ...-Описание: Что делают домашние животные пока хозяева пропадают на работе? С тоской смотрят в окно? Смиренно дремлют на коврике у двери? Как бы не так. Они ведут свою тайную жизнь.-Сэмпл IMDB КиноПоиск
Качество видео: WEB-DLRip
Контейнер: AVI
Видео кодек: XviD
Аудио кодек: AC3
Видео: 720x384 (1.88:1), 29.970 fps, XviD build 73 ~2054 kbps avg, 0.25 bit/pixel
Аудио: 48 kHz, AC3 Dolby Digital, 2/0 (L,R) ch, ~192 kbps
Cубтитры: отсутствуют
В одной из сцен на стене в квартире можно заметить постер классического фильма Альфреда Хичкока «Птицы».
В апреле 2016 года актёр и комик Сет Майерс и его пёс по кличке Фрисби снялись в рекламе автомобилей, в которой рекламировалась анимационная комедия «Тайная жизнь домашних животных».
Третий анимационный фильм, в озвучивании которого принял участие Стив Куган. Он уже озвучивал персонажей мультфильмов «Гадкий я 2» (2013) и «Миньоны» (2015).
Новая «История игрушек»
Возьмите «Историю игрушек», разбавьте атмосферой «Головоломки», хорошенько раскрасьте и добавьте драйвовый саундтрек — вот рецепт «Тайной жизни…». Несмотря на это сходство, мультфильм является прекрасным аттракционом, а в некоторых моментах даже в прямом смысле этого слова: «камера» будет носиться по городу с огромной скоростью так, что будет буквально захватывать дух. По всему хронометражу раскиданы многочисленные старые-добрые, казалось, уже забытые и поэтому кажущиеся новыми гэги и шутки; так же есть и знаменитые американские аллигаторы в канализации.
Характеры расписаны прекрасно. Кроме того, что «псы такие псы», а «кошки такие кошки», каждый герой прописан индивидуально и действует четко исходя из особенностей своего характера. Добрый и безумно милый мультфильм про дружбу, любовь и взаимовыручку, в которой так же прекрасно показано изменение и развитие отношений между героями. Вследствие схожести с нашумевшими мультфильмами прошлого не является чем-то уникальным, но обязательно обеспечит вам приятное времяпрепровождение и потрясающие эмоции.
И да, после того как проживете вместе с героями эти прекрасные полтора часа, только попробуйте на последних минутах не растрогаться от неимоверно милого эпилога этой истории, иначе придет кролик Снежок и устроит вам настоящую взбучку!
Приятного просмотра!
8 из 10
бщее
Полное имя : C:\герои 7\Тайная жизнь домашних животных\Taynaja ziznj domashnih zivotnyh.2016.D.WEB-DLRip.[pirat.ca].avi
Формат : AVI
Формат/Информация : Audio Video Interleave
Размер файла : 1,36 Гбайт
Продолжительность : 1 ч. 26 м.
Общий поток : 2259 Кбит/сек
Название фильма : Taynaja ziznj domashnih zivotnyh.2016.D.WEB-DLRip.[pirat.ca]
Программа кодирования : VirtualDubMod 1.5.10.3 | www.virtualdub-fr.org || (build 2550/release)
Видео
Идентификатор : 0
Формат : MPEG-4 Visual
Профиль формата : Advanced [email protected]
Параметр BVOP формата : 1
Параметр QPel формата : Нет
Параметр GMC формата : Без точки перехода
Параметр матрицы формата : Выборочная
Идентификатор кодека : XVID
Идентификатор кодека/Подсказка : XviD
Продолжительность : 1 ч. 26 м.
Битрейт : 2055 Кбит/сек
Ширина : 720 пикселей
Высота : 384 пикселя
Соотношение сторон : 1,85:1
Частота кадров : 29,970 (29970/1000) кадров/сек
Цветовое пространство : YUV
Субдискретизация насыщенности : 4:2:0
Битовая глубина : 8 бит
Тип развёртки : Прогрессивная
Метод сжатия : С потерями
Бит/(Пиксели*Кадры) : 0.248
Размер потока : 1,24 Гбайт (91%)
Библиотека кодирования : XviD 73
Аудио
Идентификатор : 1
Формат : AC-3
Формат/Информация : Audio Coding 3
Расширение режима : CM (complete main)
Параметр Endianness формата : Big
Идентификатор кодека : 2000
Продолжительность : 1 ч. 26 м.
Вид битрейта : Постоянный
Битрейт : 192 Кбит/сек
Каналы : 2 канала
Расположение каналов : Front: L R
Частота : 48,0 КГц
Частота кадров : 31,250 кадров/сек (1536 spf)
Метод сжатия : С потерями
Размер потока : 119 Мбайт (9%)
Выравнивание : Разделение по промежуткам
Продолжительность промежутка : 33 мс. (1,00 видеокадр)
Время предзагрузки промежутка : 500 мс.
Download / Скачать

Хотите скачать бесплатно? Зарегистрируйтесь на сайте (ссылка на регистрацию). Pirat.ca - самый быстрый торрент трекер в рунете!

Как скачивать  ·   Что такое торрент  ·   Рейтинг и ограничения

Дядя Витя

53912

Пост 02-Сен-2016 10:15 (спустя 16 минут)

[Q] 

Золото бы )
Раздающему респект!

_________________
?
[Профиль]  [ЛС] 

Пост 02-Сен-2016 14:23 (спустя 4 часа)

Топик был перенесен из форума Мультфильмы (Трюм) в форум Новинки (HD|DVD|BD| TV|SAT|PDTV| - Rips)
erchine
 

Jek@

Легенда

Пост 02-Сен-2016 14:48 (спустя 4 часа)

[Q] 

Спасибо!!! .
[Профиль]  [ЛС] 

salavat1234

Гроза морей

Пост 02-Сен-2016 22:56 (спустя 8 часов)

[Q] 

Классный мульт!!! Спасибо!!! Лови бочку
[Профиль]  [ЛС] 

viji

Корсар

Пост 05-Сен-2016 10:06 (спустя 2 дня 11 часов)

[Q] 

Немного детский, но терпимо для просмотра.
[Профиль]  [ЛС] 

Sakoru

Корсар

Пост 21-Сен-2016 18:03 (спустя 16 дней)

[Q] 

Есть над чем посмеяться!)

_________________
[Профиль]  [ЛС] 

Edward Teach

Шкипер

Пост 21-Сен-2016 21:29 (спустя 3 часа)

[Q] 

забавный мульт
[Профиль]  [ЛС] 

DocSoft

Гроза морей

71

Пост 26-Сен-2016 03:14 (спустя 4 дня)

[Q] 

Смешной мульт, много прикольчиков!

_________________
Всего одна Любовь !
[Профиль]  [ЛС] 

SGetz

Лоцман

Пост 27-Сен-2016 04:44 (спустя 1 день 1 час)

[Q] 

Прикольчики по началу, ни о чём в целом
[Профиль]  [ЛС] 
Показать сообщения:    
Ответить на тему

Текущее время: Сегодня 05:56

Часовой пояс: GMT + 4



Вы не можете начинать темы
Вы не можете отвечать на сообщения
Вы не можете редактировать свои сообщения
Вы не можете удалять свои сообщения
Вы не можете голосовать в опросах
Вы не можете прикреплять файлы к сообщениям
Вы не можете скачивать файлы

▼ Вниз