ML
     
  Уважаемый Гость!
Вы можете поддержать проект и зарегистрироваться у наших партнеров - онлайн-стратегия MyLands. При регистрации в игре Вы получите код, который сможете активировать после регистрации на pirat.ca и получить 1000 дублонов.

Ваш код:
500cb7bd8d2cec9a8aba647a87ce41c4b76f06bd
 
     

Девочка, покорившая время / Toki o kakeru shôjo (Мамору Хосода / Mamoru Hosoda) [2006 г., мультфильм, фантастика, драма, мелодрама, комедия, BDRip] Dub [«Reanimedia» R5]

Ответить на тему
 
Автор
Сообщение

Пост 05-Сен-2016 17:18

[Q] 

somik

Легенда

-Девочка, покорившая время / Toki o kakeru shôjo-- Производство: Япония
Год выпуска: 2006 г.
Жанр: мультфильм, фантастика, драма, мелодрама, комедия
Продолжительность: 01:38:19
Мировая премьера: 15 июля 2006
Дата выхода DVD: 25 февраля 2008, «Reanimedia»
Перевод: Профессиональный (полное дублирование) [«Reanimedia» R5]
Режиссер: Мамору Хосода / Mamoru Hosoda-В ролях: Рииса Нака, Такуя Ишида, Mitsutaka Itakura, Аями Какиучи, Мицуки Танимура, Сачие Хара, Yuki Sekido, Мидори Андо, Shannon Chan-Kent, Эндрю Френсис-Описание: Семнадцатилетняя Макото Конно не слишком хорошо учится, часто опаздывает и не знает, кем хочет стать после окончания школы. По вечерам она играет с друзьями в бейсбол, каждое утро вскакивает на велосипед и торопится на урок. Но внезапно в ее привычной размеренной жизни случается странное событие, и Макото обретает способность перемещаться во времени…-
Качество видео: BDRip
Контейнер: AVI
Видео кодек: XviD
Аудио кодек: AC3
Видео: 720x400 (1.80:1), 23.976 fps, XviD build 64 ~1726 kbps avg, 0.25 bit/pixel
Аудио: 48 kHz, AC3 Dolby Digital, 3/2 (L,C,R,l,r) + LFE ch, ~384 kbps
Cубтитры: отсутствуют
Фильм снят по мотивам романа Цуцуя Ясутаки «Девочка, покорившая время» (Toki o Kakeru Shojo, 1967).
«Я жду тебя в будущем…»
«Девочка, покорившая время» — японское, фантастическое аниме с привкусом комедии и драмы режиссера Мамору Хосода. Я много слышал об этом мультфильме, и недавно его с удовольствием посмотрел. Это аниме оправдало все мои ожидания, ведь оно просто замечательное, насыщенное, интересное и хорошо продуманное. Мы видим школьницу, которая одна в кабинете на что-то упала, и теперь девочка может прыгать во времени, а точнее в прошлое. Сначала она это делала по пустякам, но каждый шаг приводит к различных последствиям в нашей жизни, и были вещи, которые ей не удавалось изменить, но она пыталась из-за всех сил. Все вдруг перевернулось, когда она узнала, что ее секрет известен ее другу, и мы видим удивительную историю временных прыжков и изменения судьбы людей, находя новые шаги ее пути. Мультфильм мне этот очень понравился. Его история до крайности отлично продумана, и есть много неожиданностей, которые ждут зрителя. Эта история снята интересно, и она пропитана чем-то недосягаемым, невозможным, необъятным, ведь время нельзя поймать, остановить, но в этой истории мы видим что-то новое и удивительное. Мультфильм этот и правда замечательный, и я рад, что на него наткнулся.
А в какое прошлое время Вы хотели бы вернуться?
Потрясающий мультфильм!
9 из 10
Общее
Полное имя : J:\Девочка, покорившая время\Devochka, pokorivshaja vremja.2006.BDRip.[pirat.ca].avi
Формат : AVI
Формат/Информация : Audio Video Interleave
Размер файла : 1,46 Гбайт
Продолжительность : 1 ч. 38 м.
Общий поток : 2120 Кбит/сек
Программа кодирования : VirtualDubMod 1.5.10.2 (build 2542/release)
Видео
Идентификатор : 0
Формат : MPEG-4 Visual
Профиль формата : Advanced [email protected]
Параметр BVOP формата : 1
Параметр QPel формата : Нет
Параметр GMC формата : Без точки перехода
Параметр матрицы формата : Выборочная
Идентификатор кодека : XVID
Идентификатор кодека/Подсказка : XviD
Продолжительность : 1 ч. 38 м.
Битрейт : 1726 Кбит/сек
Ширина : 720 пикселей
Высота : 400 пикселей
Соотношение сторон : 16:9
Частота кадров : 23,976 (23976/1000) кадра/сек
Цветовое пространство : YUV
Субдискретизация насыщенности : 4:2:0
Битовая глубина : 8 бит
Тип развёртки : Прогрессивная
Метод сжатия : С потерями
Бит/(Пиксели*Кадры) : 0.250
Размер потока : 1,19 Гбайт (81%)
Библиотека кодирования : XviD 64
Аудио
Идентификатор : 1
Формат : AC-3
Формат/Информация : Audio Coding 3
Расширение режима : CM (complete main)
Параметр Endianness формата : Big
Идентификатор кодека : 2000
Продолжительность : 1 ч. 38 м.
Вид битрейта : Постоянный
Битрейт : 384 Кбит/сек
Каналы : 6 каналов
Расположение каналов : Front: L C R, Side: L R, LFE
Частота : 48,0 КГц
Частота кадров : 31,250 кадров/сек (1536 spf)
Метод сжатия : С потерями
Размер потока : 270 Мбайт (18%)
Выравнивание : Разделение по промежуткам
Продолжительность промежутка : 42 мс. (1,00 видеокадр)
Время предзагрузки промежутка : 500 мс.
Download / Скачать

Хотите скачать бесплатно? Зарегистрируйтесь на сайте (ссылка на регистрацию). Pirat.ca - самый быстрый торрент трекер в рунете!

Как скачивать  ·   Что такое торрент  ·   Рейтинг и ограничения

Показать сообщения:    
Ответить на тему

Текущее время: Сегодня 01:46

Часовой пояс: GMT + 4



Вы не можете начинать темы
Вы не можете отвечать на сообщения
Вы не можете редактировать свои сообщения
Вы не можете удалять свои сообщения
Вы не можете голосовать в опросах
Вы не можете прикреплять файлы к сообщениям
Вы не можете скачивать файлы

▼ Вниз