ML
     
  Уважаемый Гость!
Вы можете поддержать проект и зарегистрироваться у наших партнеров - онлайн-стратегия MyLands. При регистрации в игре Вы получите код, который сможете активировать после регистрации на pirat.ca и получить 1000 дублонов.

Ваш код:
500cb7bd8d2cec9a8aba647a87ce41c4b76f06bd
 
     

Angry Birds в кино / Angry Birds (Клэй Кэйтис / Clay Kaytis, Фергал Рейли / Fergal Reilly) [2016 г., мультфильм, боевик, комедия, семейный, BDRip] Dub [Лицензия]

Ответить на тему
 
Автор
Сообщение

Пост 09-Сен-2016 00:27

[Q] 

ara1205

-Angry Birds в кино / Angry Birds-- Производство: США, Финляндия
Год выпуска: 2016 г.
Жанр: мультфильм, боевик, комедия, семейный
Продолжительность: 01:37:13
Мировая премьера: 1 мая 2016
Российская премьера: 12 мая 2016
Перевод: Профессиональный (полное дублирование) [Лицензия]-Режиссер: Клэй Кэйтис / Clay Kaytis, Фергал Рейли / Fergal Reilly-Роли дублировали: Александр Цекало, Тимур Родригез, Семен Слепаков, Елена Шульман, Сергей Бурунов-Описание: Фильм расскажет о том, как началось знаменитое противостояние птичек и свинок, персонажей популярной компьютерной игры, а также раскроет некоторые секреты любимых героев.- -Качество видео: BDRip
Контейнер: AVI
Видео кодек: XviD
Аудио кодек: AC3
Видео: 720x384 (1.85:1), 23.976 fps, 1683 Kbps (0.254 bit/pixel)
Аудио: AC3, 48.0 KHz, 6 ch, 448 kbps
Cубтитры: отсутствуют-
Общее
Полное имя : C:\Users\Roman\Pictures\новинки\Angry.Birds.2016.BDRip.[pirat.ca].avi
Формат : AVI
Формат/Информация : Audio Video Interleave
Размер файла : 1,45 Гбайт
Продолжительность : 1 ч. 37 м.
Общий поток : 2140 Кбит/сек
Программа кодирования : VirtualDubMod 1.5.10.3 | www.virtualdub-fr.org || (build 2550/release)
Библиотека кодирования : VirtualDubMod build 2550/release
Видео
Идентификатор : 0
Формат : MPEG-4 Visual
Профиль формата : Advanced [email protected]
Параметр BVOP формата : 1
Параметр QPel формата : Нет
Параметр GMC формата : Без точки перехода
Параметр матрицы формата : Выборочная
Идентификатор кодека : XVID
Идентификатор кодека/Подсказка : XviD
Продолжительность : 1 ч. 37 м.
Битрейт : 1683 Кбит/сек
Ширина : 720 пикселей
Высота : 384 пикселя
Соотношение сторон : 1,85:1
Частота кадров : 23,976 кадра/сек
Цветовое пространство : YUV
Субдискретизация насыщенности : 4:2:0
Битовая глубина : 8 бит
Тип развёртки : Прогрессивная
Метод сжатия : С потерями
Бит/(Пиксели*Кадры) : 0.254
Размер потока : 1,14 Гбайт (79%)
Библиотека кодирования : XviD 73
Аудио
Идентификатор : 1
Формат : AC-3
Формат/Информация : Audio Coding 3
Расширение режима : CM (complete main)
Параметр Endianness формата : Big
Идентификатор кодека : 2000
Продолжительность : 1 ч. 37 м.
Вид битрейта : Постоянный
Битрейт : 448 Кбит/сек
Каналы : 6 каналов
Расположение каналов : Front: L C R, Side: L R, LFE
Частота : 48,0 КГц
Битовая глубина : 16 бит
Метод сжатия : С потерями
Размер потока : 312 Мбайт (21%)
Выравнивание : Разделение по промежуткам
Продолжительность промежутка : 42 мс. (1,00 видеокадр)
Время предзагрузки промежутка : 500 мс.
-
-
-
Download / Скачать

Хотите скачать бесплатно? Зарегистрируйтесь на сайте (ссылка на регистрацию). Pirat.ca - самый быстрый торрент трекер в рунете!

Как скачивать  ·   Что такое торрент  ·   Рейтинг и ограничения

fishman

Корсар

Пост 10-Сен-2016 17:01 (спустя 1 день 16 часов)

[Q] 

Спасибо!!! Лови бочку

_________________
|___|___|___|___|___|___|___|__|__
__|__|__|_Биться головой_|___|___|
|___|___|___|__сюда!!___|___|__|__
__|___|___|___|___|___|___|__|__
[Профиль]  [ЛС] 

Golsergio

Флибустьер

Пост 14-Сен-2016 14:13 (спустя 3 дня)

[Q] 

Спасибо!!! Заценимс
[Профиль]  [ЛС] 

ТАЛИ

Корсар

Пост 14-Сен-2016 22:49 (спустя 8 часов)

[Q] 

Мамадарагая, решила мультик посмотреть, а получила прям аллегорию с нынешней Ивропой, атакуемой всякой свинотой... Не знаю, в каком месте, но внезапно поняла, что там про толерантность, обосратушки от всего этого, затем мстя и.... А дальше что? Озлобленные птахи, ведомые придурковатым зажравшимся орлом, подомнут под себя разбомбленных свиней и попрут.... Куда? Уф... Злой мульт ёп
[Профиль]  [ЛС] 

ZhekasCat

Морской Волк

35

Пост 23-Сен-2016 16:49 (спустя 8 дней)

[Q] 

Спасибо.Ждал в качестве. Лови бочку
[Профиль]  [ЛС] 

savicus

Морской Волк

Пост 26-Сен-2016 20:56 (спустя 3 дня)

[Q] 

Потешный мультик.
Автору респект!!!
[Профиль]  [ЛС] 

MrViy

Штурман

Пост 27-Сен-2016 12:41 (спустя 15 часов)

[Q] 

Двоякое от него впечатление...
[Профиль]  [ЛС] 

Ливень

Корсар

Пост 24-Ноя-2016 12:32 (спустя 1 месяц 26 дней)

[Q] 

Мульт ржачный, местами порадовал саундтрек !COOL!
[Профиль]  [ЛС] 
Показать сообщения:    
Ответить на тему

Текущее время: Сегодня 01:49

Часовой пояс: GMT + 4



Вы не можете начинать темы
Вы не можете отвечать на сообщения
Вы не можете редактировать свои сообщения
Вы не можете удалять свои сообщения
Вы не можете голосовать в опросах
Вы не можете прикреплять файлы к сообщениям
Вы не можете скачивать файлы

▼ Вниз