ML
     
  Уважаемый Гость!
Вы можете поддержать проект и зарегистрироваться у наших партнеров - онлайн-стратегия MyLands. При регистрации в игре Вы получите код, который сможете активировать после регистрации на pirat.ca и получить 1000 дублонов.

Ваш код:
b70663c760e7cd2521b8e123786cdd788200e3bd
 
     

Армитаж: Двойная матрица / Armitage: Dual Matrix (Акияма Кацухито / Akiyama Katsuhito, ...) [2002 г., приключения, фантастика, боевик, киберпанк, DVDRip] MVO

Ответить на тему
 
Автор
Сообщение

Пост 11-Сен-2016 16:20

[Q] 

somik

Легенда

-Армитаж: Двойная матрица / Armitage: Dual Matrix-- Производство: Япония
Год выпуска: 2002 г.
Жанр: приключения, фантастика, боевик, киберпанк
Продолжительность: 01:29:50
Мировая премьера: 22 марта 2002
Перевод: Профессиональный (многоголосый, закадровый)
Режиссер: Акияма Кацухито / Akiyama Katsuhito, ...-В ролях: Рёка Юдзуки, Хикару Ханада, Юка Имаи, Кадзухиро Ямадзи, Дзёдзи Наката, Мицуки Сайга, Ахмед Бест, Такуми Ямадзаки, Кирк Бейли, Катрин Баттистоун, ...-Описание: Действие происходит в будущем, когда человечество успешно освоило Марс, установив там развитое урбанистическое общество, огромную помощь в создании которого оказали биороиды так называемого 2-го поколения, живущие среди людей нормальной жизнью. Однако экономический спад привёл к резкому обострению отношений людей со «Вторыми», обвиняемыми в создавшейся безработице и прочих бедах. Всё чаще и чаще разъярённые толпы линчуют соседей-биороидов. Именно в такой тяжёлой атмосфере в марсианскую полицию переводится с Земли детектив Силибас Росс, переживший собственную трагедию — его напарница-возлюбленная была убита биороидом. Нетрудно понять его отношение ко «Вторым», хотя от вида сжигаемых биороидов Силибасу явно не по себе.
Во время прибытия Росса в космопорте происходит зверское убийство известной певицы, которая, как оказалось, принадлежала к незаконному типу биороидов 3-го поколения, внешне практически неотличимых от людей и способных к репродукции. Жестокий убийца, имея список «Третьих», истребляет несчастных (все «Третьи» женщины), цинично записывая расправу на плёнку и передавая на ТВ снятую кассету. Щекотливое дело поручают Россу и его новой напарнице, сексапильной голубоглазой хулиганке Наоми Армитаж, которой сразу приглянулся немногословный землянин. Как выясняется, Армитаж имеет к этому расследованию особый интерес…
Описание Армитаж: Двойная матрица: Наоми Армитаж и Росс Силибус укрылись под вымышленными фамилиями на Марсе и тихо растят дочку Йоко. Однако спокойной семейной жизни проходит конец, когда одном из земных предприятий по производству антиматерии происходит бунт роботов. Армитаж узнает, что восстание — лишь повод для сокрытия информации о разработке новых роботов «третьего типа».
Наоми отправляется на Землю, чтобы вычислить организаторов мрачной затеи, и встречает на своем пути самого сильного противника из всех, что ей когда-либо попадались: собственные копии!-
Качество видео: DVDRip
Контейнер: AVI
Видео кодек: XviD
Аудио кодек: MP3
Видео: 640x480 (1.33:1), 29.970 fps, XviD build 50 ~1016 kbps avg, 0.11 bit/pixel
Аудио: 48 kHz, MPEG Layer 3, 2 ch, ~128.00 kbps avg
Cубтитры: отсутствуют
Общее
Полное имя : E:\!Армитаж - Двойная матрица\Armitage.Dual Matrix.2002.DVDRip.[pirat.ca].avi
Формат : AVI
Формат/Информация : Audio Video Interleave
Размер файла : 744 Мбайт
Продолжительность : 1 ч. 29 м.
Общий поток : 1156 Кбит/сек
Название фильма : Armitage-III.Dual Matrix.2002.DVDRip.[pirat.ca]
Программа кодирования : VirtualDubMod 1.5.10.2 (build 2540/release) VirtualDubMod build 2540/release
Видео
Идентификатор : 0
Формат : MPEG-4 Visual
Профиль формата : Advanced [email protected]
Параметр BVOP формата : 1
Параметр QPel формата : Нет
Параметр GMC формата : Без точки перехода
Параметр матрицы формата : Default (MPEG)
Идентификатор кодека : XVID
Идентификатор кодека/Подсказка : XviD
Продолжительность : 1 ч. 29 м.
Битрейт : 1016 Кбит/сек
Ширина : 640 пикселей
Высота : 480 пикселей
Соотношение сторон : 4:3
Частота кадров : 29,970 (30000/1001) кадров/сек
Цветовое пространство : YUV
Субдискретизация насыщенности : 4:2:0
Битовая глубина : 8 бит
Тип развёртки : Прогрессивная
Метод сжатия : С потерями
Бит/(Пиксели*Кадры) : 0.110
Размер потока : 654 Мбайт (88%)
Библиотека кодирования : XviD 1.2.1 (UTC 2008-12-04)
Аудио
Идентификатор : 1
Формат : MPEG Audio
Версия формата : Version 1
Профиль формата : Layer 3
Идентификатор кодека : 55
Идентификатор кодека/Подсказка : MP3
Продолжительность : 1 ч. 29 м.
Вид битрейта : Постоянный
Битрейт : 128 Кбит/сек
Каналы : 2 канала
Частота : 48,0 КГц
Метод сжатия : С потерями
Размер потока : 82,4 Мбайт (11%)
Выравнивание : Соединение по промежуткам
Продолжительность промежутка : 33 мс. (1,00 видеокадр)
Время предзагрузки промежутка : 504 мс.
Библиотека кодирования : LAME3.98r
Настройки программы : -m s -V 4 -q 2 -lowpass 17 -b 128
Download / Скачать

Хотите скачать бесплатно? Зарегистрируйтесь на сайте (ссылка на регистрацию). Pirat.ca - самый быстрый торрент трекер в рунете!

Как скачивать  ·   Что такое торрент  ·   Рейтинг и ограничения

Пост 12-Сен-2016 20:51 (спустя 1 день 4 часа)

Топик был перенесен из форума Мультфильмы (Трюм) в форум Зарубежные полнометражные мультфильмы
ara1205
 
Показать сообщения:    
Ответить на тему

Текущее время: Сегодня 00:22

Часовой пояс: GMT + 4



Вы не можете начинать темы
Вы не можете отвечать на сообщения
Вы не можете редактировать свои сообщения
Вы не можете удалять свои сообщения
Вы не можете голосовать в опросах
Вы не можете прикреплять файлы к сообщениям
Вы не можете скачивать файлы

▼ Вниз