ML
     
  Уважаемый Гость!
Вы можете поддержать проект и зарегистрироваться у наших партнеров - онлайн-стратегия MyLands. При регистрации в игре Вы получите код, который сможете активировать после регистрации на pirat.ca и получить 1000 дублонов.

Ваш код:
8dcb839cf1b47e56d6dc42d17f26b3e4822e9aee
 
     

Без семьи / Chibikko Remi to meiken Capi (Юго Сэрикава | Yûgo Serikawa) [1970 г., мультфильм, драма, приключения, DVDRip] Dub ["Союзмультфильм"]

Ответить на тему
 
Автор
Сообщение

Пост 12-Сен-2016 04:44

[Q] 

somik

Легенда

-Без семьи / Chibikko Remi to meiken Capi-- Производство: Япония
Год выпуска: 1970 г.
Жанр: мультфильм, драма, приключения
Продолжительность: 00:51:57
Мировая премьера: 17 марта 1970
Перевод: Профессиональный (полное дублирование) ["Союзмультфильм"]
Режиссер: Юго Сэрикава | Yûgo Serikawa-В ролях: Светлана Харлап, Александр Баранов, Вера Алентова, Юрий Ильчук, ...-Описание: Полнометражный анимационный фильм по мотивам классической повести для детей «Без семьи» (Sans famille, 1878) французского романиста XIX века Гектора Мало.
Это рассказ о жизни и приключениях мальчика Реми, который долгое время не знает, кто его родители. Отданный в ученики к бродячему артисту Виталису, он отправляется странствовать вместе с бродячим цирком, веселя публику, участвуя в уличных представлениях и не теряя надежды найти свою настоящую мать. Множество веселых, грустных и опасных приключений ждет его на этом пути...-
Качество видео: DVDRip
Контейнер: AVI
Видео кодек: XviD
Аудио кодек: MP3
Видео: 672x288 (2.33:1), 25 fps, XviD build 55 ~969 kbps avg, 0.20 bit/pixel
Аудио: 44.100 kHz, MPEG Layer 3, 2 ch, ~98.10 kbps avg
Cубтитры: отсутствуют
Общее
Полное имя : E:\!Без семьи\Bez sem'i.1970.DVDRip.[pirat.ca].avi
Формат : AVI
Формат/Информация : Audio Video Interleave
Размер файла : 402 Мбайт
Продолжительность : 51 м.
Режим общего битрейта : Переменный
Общий поток : 1081 Кбит/сек
Программа кодирования : VirtualDubMod 1.5.10.3 (build 2550/release)
Библиотека кодирования : VirtualDubMod build 2550/release
Видео
Идентификатор : 0
Формат : MPEG-4 Visual
Профиль формата : Advanced [email protected]
Параметр BVOP формата : 2
Параметр QPel формата : Нет
Параметр GMC формата : Без точки перехода
Параметр матрицы формата : Default (MPEG)
Идентификатор кодека : XVID
Идентификатор кодека/Подсказка : XviD
Продолжительность : 51 м.
Битрейт : 970 Кбит/сек
Ширина : 672 пикселя
Высота : 288 пикселей
Соотношение сторон : 2,35:1
Частота кадров : 25,000 кадров/сек
Цветовое пространство : YUV
Субдискретизация насыщенности : 4:2:0
Битовая глубина : 8 бит
Тип развёртки : Прогрессивная
Метод сжатия : С потерями
Бит/(Пиксели*Кадры) : 0.200
Размер потока : 361 Мбайт (90%)
Библиотека кодирования : XviD 1.3.0.dev55
Аудио
Идентификатор : 1
Формат : MPEG Audio
Версия формата : Version 1
Профиль формата : Layer 3
Режим : Joint stereo
Расширение режима : MS Stereo
Идентификатор кодека : 55
Идентификатор кодека/Подсказка : MP3
Продолжительность : 51 м.
Вид битрейта : Переменный
Битрейт : 98,1 Кбит/сек
Каналы : 2 канала
Частота : 44,1 КГц
Метод сжатия : С потерями
Размер потока : 36,5 Мбайт (9%)
Выравнивание : Соединение по промежуткам
Продолжительность промежутка : 26 мс. (0,65 видеокадр)
Время предзагрузки промежутка : 169 мс.
Библиотека кодирования : LAME3.97
Download / Скачать

Хотите скачать бесплатно? Зарегистрируйтесь на сайте (ссылка на регистрацию). Pirat.ca - самый быстрый торрент трекер в рунете!

Как скачивать  ·   Что такое торрент  ·   Рейтинг и ограничения

Пост 12-Сен-2016 20:47 (спустя 16 часов)

Топик был перенесен из форума Зарубежное Кино (Трюм) в форум Зарубежные полнометражные мультфильмы
ara1205
 
Показать сообщения:    
Ответить на тему

Текущее время: Сегодня 04:18

Часовой пояс: GMT + 4



Вы не можете начинать темы
Вы не можете отвечать на сообщения
Вы не можете редактировать свои сообщения
Вы не можете удалять свои сообщения
Вы не можете голосовать в опросах
Вы не можете прикреплять файлы к сообщениям
Вы не можете скачивать файлы

▼ Вниз