ML
     
  Уважаемый Гость!
Вы можете поддержать проект и зарегистрироваться у наших партнеров - онлайн-стратегия MyLands. При регистрации в игре Вы получите код, который сможете активировать после регистрации на pirat.ca и получить 1000 дублонов.

Ваш код:
8b752b428cf60a012c159dcae592cd1392170115
 
     

Феи: Турнир Долины Фей / Pixie Hollow Games (Брэдли Рэймонд / Bradley Raymond) [2011, фэнтези, приключения, семейный, BDRip-AVC] Dub [лицензия] + Original (Eng)

Ответить на тему
 
Автор
Сообщение

Пост 15-Сен-2016 01:03

[Q] 

Андря

Феи: Турнир Долины Фей / Pixie Hollow Games«Добро пожаловать в долину фей» Год выхода: 2011
Жанр: фэнтези, приключения, семейный
Производство: США
Продолжительность: 00:22:34
Перевод: Профессиональный (полное дублирование) [лицензия]
Оригинальный аудиопоток: английский
Мировая премьера: 19 ноября 2011
Премьера в России: 25 ноября 2011
Режиссер: Брэдли Рэймонд / Bradley Raymond
Роли озвучивали: Люси Лью, Мэй Уитман, Анжелика Хьюстон, Бренда Сонг, Памела Адлон, Рэйвен, Дэн Кертис Ли, Зендая Коулман, Меган Хилти, Роб Полсен, Джефф Беннетт, Джейсон Долли, Джейн Хоррокс, Кэри Уолгрен, Тиффани Торнтон Динь-Динь и её друзья собираются со всех уголков Нетландии, чтобы принять участие в Турнире Долины Фей — невероятных Олимпийских играх. Турнир обещает стать ярким зрелищем с фантастическими спортивными состязаниями и веселыми сюрпризами! Садовые Феи Розетта и Хлоя решают сразиться с действующими чемпионами — командой «Шторм». Глиммер и Рамбл принимают их вызов, и начинается самое захватывающее состязание всех времен. Все команды Фей будут стараться проявить себя с лучшей стороны, но победит только одна из них! Режиссер: Брэдли Рэймонд
Качество: BDRip
Формат: MKV
Видео кодек: AVC
Аудио кодек: АС-3
Видео: AVC, 3724 Кбит/сек, 996х562. 16:9, 23,976 кадра/сек, 0.277 Бит/Пиксел
Аудио 1: A_AC3, 192 Кбит/сек, 2 канала, Front: L R, 48,0 КГц, Russian
Аудио 2: A_AC3, 448 Кбит/сек, 6 каналов, Front: L C R, Side: L R, LFE, 48,0 КГц, English
Общее
Уникальный идентификатор : 179871645051348234128062807317115732309 (0x875204CBD21F0059BB93D92F963A8155)
Полное имя : Феи. Турнир Долины Фей(2011)BDRip.mkv
Формат : Matroska
Версия формата : Version 2
Размер файла : 719 Мбайт
Продолжительность : 22 м.
Общий поток : 4453 Кбит/сек
Дата кодирования : UTC 2016-09-12 06:28:10
Программа кодирования : mkvmerge v5.2.1 ('A Far Off Place') built on Jan 7 2012 21:56:27
Библиотека кодирования : libebml v1.2.3 + libmatroska v1.3.0
Видео
Идентификатор : 1
Формат : AVC
Формат/Информация : Advanced Video Codec
Профиль формата : [email protected]
Параметр CABAC формата : Да
Параметр ReFrames формата : 10 кадров
Режим смешивания : Header stripping
Идентификатор кодека : V_MPEG4/ISO/AVC
Продолжительность : 22 м.
Битрейт : 3724 Кбит/сек
Ширина : 996 пикселей
Высота : 562 пикселя
Соотношение сторон : 16:9
Режим частоты кадров : Постоянный
Частота кадров : 23,976 кадра/сек
Цветовое пространство : YUV
Субдискретизация насыщенности : 4:2:0
Битовая глубина : 8 бит
Тип развёртки : Прогрессивная
Бит/(Пиксели*Кадры) : 0.277
Размер потока : 601 Мбайт (84%)
Библиотека кодирования : x264 core 128 r2216kMod 198a7ea
Настройки программы : cabac=1 / ref=10 / deblock=1:-2:-1 / analyse=0x3:0x133 / me=umh / subme=11 / psy=1 / fade_compensate=0.00 / psy_rd=0.60:0.00 / mixed_ref=1 / me_range=32 / chroma_me=1 / trellis=2 / 8x8dct=1 / cqm=0 / deadzone=21,11 / fast_pskip=0 / chroma_qp_offset=-2 / threads=6 / lookahead_threads=1 / sliced_threads=0 / nr=0 / decimate=1 / interlaced=0 / bluray_compat=0 / constrained_intra=0 / bframes=10 / b_pyramid=2 / b_adapt=2 / b_bias=0 / direct=1 / weightb=1 / open_gop=0 / weightp=2 / keyint=250 / keyint_min=23 / scenecut=40 / intra_refresh=0 / rc_lookahead=70 / rc=crf / mbtree=0 / crf=17.0190 / qcomp=0.80 / qpmin=0 / qpmax=69 / qpstep=4 / vbv_maxrate=25000 / vbv_bufsize=31250 / crf_max=0.0 / nal_hrd=none / ip_ratio=1.40 / pb_ratio=1.30 / aq=3:0.90
Default : Да
Forced : Нет
Основные цвета : BT.709
Характеристики трансфера : BT.709
Коэффициенты матрицы : BT.709
Аудио #1
Идентификатор : 2
Формат : AC-3
Формат/Информация : Audio Coding 3
Расширение режима : CM (complete main)
Параметр Endianness формата : Big
Режим смешивания : Header stripping
Идентификатор кодека : A_AC3
Продолжительность : 22 м.
Вид битрейта : Постоянный
Битрейт : 192 Кбит/сек
Каналы : 2 канала
Расположение каналов : Front: L R
Частота : 48,0 КГц
Битовая глубина : 16 бит
Метод сжатия : С потерями
Размер потока : 31,0 Мбайт (4%)
Default : Да
Forced : Нет
Аудио #2
Идентификатор : 3
Формат : AC-3
Формат/Информация : Audio Coding 3
Расширение режима : CM (complete main)
Параметр Endianness формата : Big
Режим смешивания : Header stripping
Идентификатор кодека : A_AC3
Продолжительность : 22 м.
Вид битрейта : Постоянный
Битрейт : 448 Кбит/сек
Каналы : 6 каналов
Расположение каналов : Front: L C R, Side: L R, LFE
Частота : 48,0 КГц
Битовая глубина : 16 бит
Метод сжатия : С потерями
Размер потока : 72,3 Мбайт (10%)
Default : Нет
Forced : Нет
Download / Скачать

Хотите скачать бесплатно? Зарегистрируйтесь на сайте (ссылка на регистрацию). Pirat.ca - самый быстрый торрент трекер в рунете!

Как скачивать  ·   Что такое торрент  ·   Рейтинг и ограничения

Пост 16-Сен-2016 08:39 (спустя 1 день 7 часов)

Топик был перенесен из форума Мультфильмы (Трюм) в форум Зарубежные полнометражные мультфильмы
erchine
 

teriv

Морской Волк

30

Пост 18-Сен-2016 22:47 (спустя 3 дня)

[Q] 

Что то по скриншотам не понятно то ли качество плохое, то ли все без исключения скриншоты сделаны неудачно, что конечно мало вероятно но возможно. Может пережали слишком сильно?

_________________
[Профиль]  [ЛС] 
Показать сообщения:    
Ответить на тему

Текущее время: Сегодня 06:20

Часовой пояс: GMT + 4



Вы не можете начинать темы
Вы не можете отвечать на сообщения
Вы не можете редактировать свои сообщения
Вы не можете удалять свои сообщения
Вы не можете голосовать в опросах
Вы не можете прикреплять файлы к сообщениям
Вы не можете скачивать файлы

▼ Вниз