ML
     
  Уважаемый Гость!
Вы можете поддержать проект и зарегистрироваться у наших партнеров - онлайн-стратегия MyLands. При регистрации в игре Вы получите код, который сможете активировать после регистрации на pirat.ca и получить 1000 дублонов.

Ваш код:
e6008d9811a0b6a1393c3dc51ecd7bc35637bc21
 
     

Невеста чародея: В ожидании путеводной звезды Часть 1 / Mahôtsukai no yome: hoshi matsu hito Part 1 (Норихидо Наганума / Norihiro Naganuma) [2016 г., Фэнтези, мультфильм, WEB-DL, 1080p] MVO [AniFilm] + Sub (Rus)

Ответить на тему
 
Автор
Сообщение

Пост 25-Сен-2016 17:26

[Q] 

somik

Легенда

- Невеста чародея: В ожидании путеводной звезды Часть 1 / Mahôtsukai no yome: hoshi matsu hito Part 1-- Производство: Япония
Режиссер: Норихидо Наганума / Norihiro Naganuma
Жанр: Фэнтези, мультфильм
Год выпуска: 2016 г.
Продолжительность: 00:23:04
Мировая премьера: 13 августа 2016
Перевод: Любительский (многоголосый, закадровый) [AniFilm]
Роли озвучивали: Ая Эндо, Юко Кайда, Мисаки Куно, Сакурай Такахиро, Рёта Такэути, Ацуми Танэдзаки, Коки Утияма-Описание: Хатори Тисэ жила жизнью, которая была наполнена отчужденностью и насилием, а также лишенным любой формы любви и заботы. Без семейной заботы и ласки, она пережила все тяжести жизни. И вот, когда вся надежда угасла, произошла судьбоносная встреча. После того,как человек с черепом зверя, имеющий сверхъестественные силы, выкупил её с рабовладельческого рынка - жизнь Тисэ больше никогда не будет прежней. Этот человек является "магом", колдуном огромной силы, который решает спасти Хатори Тисэ от уз плена. Маг делает смелое заявление: "Тисэ станет моей ученицей и моей женой!".-Сэмпл IMDB КиноПоиск
Качество видео: WEB-DL
Контейнер: MKV
Стандарт разрешения: 1080p
Видео кодек: MPEG4 AVC
Аудио кодек: AC3
Видео: 3072 Кбит/сек, 1920х1080, 24,000 кадра/сек
Аудио: 192 Кбит/сек, 2 канала, 48,0 КГц, AC3
Cубтитры: русские
Формат субтитров: softsub (SSA/ASS)
Доп. информация о субтитрах: включаемые
19 Сен. 2016 16:47
Добротная сказка, говорили где то, что ОВАшки (коих кстате будет 3) лишь вкратце передают сюжет оригинала (манги), но как по мне 1я ОВА более чем понятна и получилась просто отлично!
Жаль, что подобных аниме очень мало.
бщее
Уникальный идентификатор : 192683563512824881010792924170965225205 (0x90F5812557CEB2B2AB37B1D3BEBC0EF5)
Полное имя : J:\Невеста чародея\Nevesta CHarodeja.WEBRip 1080p.[pirat.ca].mkv
Формат : Matroska
Версия формата : Version 2
Размер файла : 532 Мбайт
Продолжительность : 23 м.
Общий поток : 3224 Кбит/сек
Дата кодирования : UTC 2016-09-25 12:24:05
Программа кодирования : mkvmerge v5.3.0 ('I could have danced') built on Feb 9 2012 10:38:07
Библиотека кодирования : libebml v1.2.3 + libmatroska v1.3.0
Видео
Идентификатор : 1
Формат : AVC
Формат/Информация : Advanced Video Codec
Профиль формата : [email protected]
Параметр CABAC формата : Да
Параметр ReFrames формата : 4 кадра
Идентификатор кодека : V_MPEG4/ISO/AVC
Продолжительность : 23 м.
Битрейт : 3072 Кбит/сек
Ширина : 1920 пикселей
Высота : 1080 пикселей
Соотношение сторон : 16:9
Режим частоты кадров : Постоянный
Частота кадров : 24,000 кадра/сек
Частота кадров в оригинале : 23,976 (23976/1000) кадра/сек
Цветовое пространство : YUV
Субдискретизация насыщенности : 4:2:0
Битовая глубина : 8 бит
Тип развёртки : Прогрессивная
Бит/(Пиксели*Кадры) : 0.062
Размер потока : 490 Мбайт (92%)
Библиотека кодирования : x264 core 120 r2120 0c7dab9
Настройки программы : cabac=1 / ref=4 / deblock=1:1:1 / analyse=0x3:0x113 / me=umh / subme=8 / psy=1 / psy_rd=0.40:0.00 / mixed_ref=1 / me_range=16 / chroma_me=1 / trellis=2 / 8x8dct=1 / cqm=0 / deadzone=21,11 / fast_pskip=1 / chroma_qp_offset=-2 / threads=8 / sliced_threads=0 / nr=0 / decimate=1 / interlaced=0 / bluray_compat=0 / constrained_intra=0 / bframes=3 / b_pyramid=2 / b_adapt=2 / b_bias=0 / direct=3 / weightb=1 / open_gop=0 / weightp=2 / keyint=250 / keyint_min=23 / scenecut=40 / intra_refresh=0 / rc_lookahead=50 / rc=2pass / mbtree=1 / bitrate=3072 / ratetol=1.0 / qcomp=0.60 / qpmin=0 / qpmax=69 / qpstep=4 / cplxblur=20.0 / qblur=0.5 / vbv_maxrate=6144 / vbv_bufsize=15360 / nal_hrd=none / ip_ratio=1.40 / aq=1:0.60
Язык : Japanese
Default : Да
Forced : Да
Аудио
Идентификатор : 2
Формат : AC-3
Формат/Информация : Audio Coding 3
Расширение режима : CM (complete main)
Параметр Endianness формата : Big
Идентификатор кодека : A_AC3
Продолжительность : 23 м.
Вид битрейта : Постоянный
Битрейт : 192 Кбит/сек
Каналы : 2 канала
Расположение каналов : Front: L R
Частота : 48,0 КГц
Частота кадров : 31,250 кадров/сек (1536 spf)
Метод сжатия : С потерями
Задержка видео : -83 мс.
Размер потока : 31,7 Мбайт (6%)
Заголовок : Russian 2.0 (AniFilm | MVO)
Язык : Russian
Default : Да
Forced : Да
Текст #1
Идентификатор : 3
Формат : ASS
Идентификатор кодека : S_TEXT/ASS
Идентификатор кодека/Информация : Advanced Sub Station Alpha
Метод сжатия : Без потерь
Заголовок : Russian Text
Язык : Russian
Default : Да
Forced : Да
Текст #2
Идентификатор : 4
Формат : ASS
Идентификатор кодека : S_TEXT/ASS
Идентификатор кодека/Информация : Advanced Sub Station Alpha
Метод сжатия : Без потерь
Язык : Russian
Default : Нет
Forced : Нет
Меню
00:00:00.000 : ru:Пролог
00:03:14.000 : ru:Вступление
00:03:31.000 : ru:Часть А
00:14:27.000 : ru:Часть Б
00:21:21.000 : ru:Послесловие
00:22:47.000 : ru:Эпилог
Download / Скачать

Хотите скачать бесплатно? Зарегистрируйтесь на сайте (ссылка на регистрацию). Pirat.ca - самый быстрый торрент трекер в рунете!

Как скачивать  ·   Что такое торрент  ·   Рейтинг и ограничения

Показать сообщения:    
Ответить на тему

Текущее время: Сегодня 02:05

Часовой пояс: GMT + 4



Вы не можете начинать темы
Вы не можете отвечать на сообщения
Вы не можете редактировать свои сообщения
Вы не можете удалять свои сообщения
Вы не можете голосовать в опросах
Вы не можете прикреплять файлы к сообщениям
Вы не можете скачивать файлы

▼ Вниз