ML
     
  Уважаемый Гость!
Вы можете поддержать проект и зарегистрироваться у наших партнеров - онлайн-стратегия MyLands. При регистрации в игре Вы получите код, который сможете активировать после регистрации на pirat.ca и получить 1000 дублонов.

Ваш код:
500cb7bd8d2cec9a8aba647a87ce41c4b76f06bd
 
     

Мы вернулись! История динозавра / We're Back! A Dinosaur's Story (Фил Ниббелинк / Phil Nibbelink, ...) [1993 г., мультфильм, фэнтези, приключения, семейный, 0+, BDRip] MVO + Original (Eng)

Ответить на тему
 
Автор
Сообщение

Пост 26-Сен-2016 04:44

[Q] 

somik

Легенда

-Мы вернулись! История динозавра / We're Back! A Dinosaur's Story-- Производство: США, Amblimation, Amblin Entertainment, Universal Pictures, ...
Режиссер: Фил Ниббелинк / Phil Nibbelink, ...
Жанр: мультфильм, фэнтези, приключения, семейный, 0+
Год выпуска: 1993 г.
Продолжительность: 01:10:52
Мировая премьера: 24 ноября 1993
Перевод: Профессиональный (многоголосый, закадровый)
Оригинальный аудиопоток: английский
Роли озвучивали: Джон Гудман, Блэйз Бердаль, Ри Перлман, Джей Лено, Рене Ле Вант, Фелисити Кендал, Чарльз Флайшер, Уолтер Кронкит, Ларри Кинг, Джулия Чайлд, Мартин Шорт-Описание: Добрый профессор с говорящим именем Благовзгляд отправился во времена динозавров на своём чудесном дирижабле, способном перемещаться во времени. Поймав четырёх злобных динозавров, профессор накормил их специальным препаратом, превратившим монстров в говорящих весельчаков. После этого Благовзгляд дал динозаврам послушать своё Радио Желаний, в котором можно было услышать мечты детей, ради которых, собственно, учёный и отловил доисторических животных.
К сожалению, из-за временных неполадок в системе корабля все четыре гостя из прошлого были катапультированы прямо на голову мальчишке Луи, занимавшемуся сёрфингом. Он отнёсся к появлению «монстров» как к обычному явлению — впрочем, только он. Дабы не напугать горожан, пришельцы притворились роботами. И всё бы ничего, если бы их не разоблачила маленькая девочка, а Луи вместе со своей новой знакомой не оказался в плену у злобного братца Благовзгляда — инфернального Дурноглаза, устроившего цирк страшилищ…-Сэмпл IMDB КиноПоиск
Качество видео: BDRip
Контейнер: AVI
Видео кодек: XviD
Аудио кодек: AC3
Видео: 704x384 (1.83:1), 23.976 fps, XviD build 65 ~2287 kbps avg, 0.35 bit/pixel
Аудио: 48 kHz, AC3 Dolby Digital, 2/0 (L,R) ch, ~192 kbps
Аудио #2: 48 kHz, AC3 Dolby Digital, 3/2 (L,C,R,l,r) + LFE ch, ~448 kbps
Cубтитры: отсутствуют
Мультфильм создан по книге Хадсон Тэлботт.
Мечты сбываются!
Прекрасный старый добрый мульт о том, как важно и необходимо мечтать!
Ведь как известно, если очень сильно захотеть, мечты сбываются! Даже самые невероятные! Такие например, как желание увидеть живого динозавра, или того сложнее — заиметь хорошего и верного друга!
А что, если объединить сразу оба этих желания?
Почему бы и нет?
В последний раз я смотрел этот мультфильм лет 15-20 назад, но несмотря на столь длительный перерыв он всё равно оставляет светлые впечатления от себя!..
Конечно, с возрастом всё сложнее и сложнее погружать себя всецело в сказочный мир, растворятся в этой экранизированной сказке, продолжая чувствовать себя ребёнком) Многие эпизоды взрослому человеку могут показаться неуместными или излишними (например, финальный поцелуй мальчика и девочки…)… Но с другой стороны, гораздо точнее сформулировать те мысли, что заложены в мультфильме и которые детям до конца понять сложнее…
Например, основная мысль о том, что преждевременные попытки вступить во взрослую жизнь, так сказать «выпорхнуть из родительского гнезда» раньше срока, будучи ещё неокрепшим и не готовым к суровой борьбе за выживание во взрослом мире «птенцом», чревато серьёзными трудностями и опасностями; или то, что не при каких обстоятельствах нельзя терять своё человеческое лицо ("Не надо быть таким злым только потому, что он (сумасшедший профессор) злой! Рекс означает «король». Так будь королём, не смотря ни на что! Я прошу тебя, Рекс!»); а финальная сцена с профессором Круайсом (сегодня мне кажущаяся не совсем справедливой, а скорее печальной) рассказывает детям о том, как может быть опасен собственный страх, вплоть до того, что в конце концов он может тебя уничтожить ("Подождите! Не оставляйте меня!.. Когда мне некого пугать — я сам начинаю бояться…»)…
Так что пересматривать такие, проверенные временем, вещи, порой полезно, даже если ты из них, казалось бы, давно вырос! Ведь вопросы, поставленные в таких лентах, подчас оказываются куда актуальнее лишь потом, когда ты уже перестаёшь быть ребёнком…
Но вот мне лично хочется смотреть подобные шедевры глазами именно маленького мальчика, впервые познакомившегося с ними в начале или середины 90х гг. Ни о чём особо не задумываясь, а просто погрузившись в мир прекрасной фантазии и чудесных аниматоров…
10 из 10
Общее
Полное имя : E:\Мы вернулись!\My vernulis.Istoriya dinozavra.1993.BDRip.[pirat.ca].avi
Формат : AVI
Формат/Информация : Audio Video Interleave
Размер файла : 1,46 Гбайт
Продолжительность : 1 ч. 10 м.
Общий поток : 2943 Кбит/сек
Программа кодирования : VirtualDubMod 1.5.10.2 (build 2542/release)
Видео
Идентификатор : 0
Формат : MPEG-4 Visual
Профиль формата : Advanced [email protected]
Параметр BVOP формата : 1
Параметр QPel формата : Нет
Параметр GMC формата : Без точки перехода
Параметр матрицы формата : Выборочная
Идентификатор кодека : XVID
Идентификатор кодека/Подсказка : XviD
Продолжительность : 1 ч. 10 м.
Битрейт : 2289 Кбит/сек
Ширина : 704 пикселя
Высота : 384 пикселя
Соотношение сторон : 1,85:1
Частота кадров : 23,976 (24000/1001) кадра/сек
Цветовое пространство : YUV
Субдискретизация насыщенности : 4:2:0
Битовая глубина : 8 бит
Тип развёртки : Прогрессивная
Метод сжатия : С потерями
Бит/(Пиксели*Кадры) : 0.353
Размер потока : 1,13 Гбайт (78%)
Библиотека кодирования : XviD 65
Аудио #1
Идентификатор : 1
Формат : AC-3
Формат/Информация : Audio Coding 3
Расширение режима : CM (complete main)
Параметр Endianness формата : Big
Идентификатор кодека : 2000
Продолжительность : 1 ч. 10 м.
Вид битрейта : Постоянный
Битрейт : 192 Кбит/сек
Каналы : 2 канала
Расположение каналов : Front: L R
Частота : 48,0 КГц
Частота кадров : 31,250 кадров/сек (1536 spf)
Метод сжатия : С потерями
Размер потока : 97,3 Мбайт (7%)
Выравнивание : Разделение по промежуткам
Продолжительность промежутка : 42 мс. (1,00 видеокадр)
Время предзагрузки промежутка : 500 мс.
Аудио #2
Идентификатор : 2
Формат : AC-3
Формат/Информация : Audio Coding 3
Расширение режима : CM (complete main)
Параметр Endianness формата : Big
Идентификатор кодека : 2000
Продолжительность : 1 ч. 10 м.
Вид битрейта : Постоянный
Битрейт : 448 Кбит/сек
Каналы : 6 каналов
Расположение каналов : Front: L C R, Side: L R, LFE
Частота : 48,0 КГц
Частота кадров : 31,250 кадров/сек (1536 spf)
Метод сжатия : С потерями
Размер потока : 227 Мбайт (15%)
Выравнивание : Разделение по промежуткам
Продолжительность промежутка : 42 мс. (1,00 видеокадр)
Время предзагрузки промежутка : 500 мс.
Download / Скачать

Хотите скачать бесплатно? Зарегистрируйтесь на сайте (ссылка на регистрацию). Pirat.ca - самый быстрый торрент трекер в рунете!

Как скачивать  ·   Что такое торрент  ·   Рейтинг и ограничения

Показать сообщения:    
Ответить на тему

Текущее время: Сегодня 01:45

Часовой пояс: GMT + 4



Вы не можете начинать темы
Вы не можете отвечать на сообщения
Вы не можете редактировать свои сообщения
Вы не можете удалять свои сообщения
Вы не можете голосовать в опросах
Вы не можете прикреплять файлы к сообщениям
Вы не можете скачивать файлы

▼ Вниз