ML
     
  Уважаемый Гость!
Вы можете поддержать проект и зарегистрироваться у наших партнеров - онлайн-стратегия MyLands. При регистрации в игре Вы получите код, который сможете активировать после регистрации на pirat.ca и получить 1000 дублонов.

Ваш код:
93dbf9fbdfa06c41d3b5a2c3921149ba36168c41
 
     

Ледниковый период: Столкновение неизбежно / Ice Age: Collision Course (Майк Тёрмайер, Гален Т. Чу / Mike Thurmeier, Galen T. Chu) [2016 г., мультфильм, фантастика, комедия, приключения, семейный, HDRip] Dub [iTunes]

Ответить на тему
 
Автор
Сообщение

Пост 30-Сен-2016 09:18

[Q] 

aleksey99

--Ледниковый период: Столкновение неизбежно / Ice Age: Collision Course--«Маленький шаг для него. Большая проблема для всех»-- Производство: США, 20th Century Fox Animation, Blue Sky Studios
Год выпуска: 2016 г.
Жанр: мультфильм, фантастика, комедия, приключения, семейный
Продолжительность: 01:34:33--Мировая премьера: 19 июня 2016
Российская премьера: 14 июля 2016, «Двадцатый Век Фокс СНГ»--Перевод: Профессиональный (полное дублирование) [ iTunes]--Режиссер: Майк Тёрмайер, Гален Т. Чу / Mike Thurmeier, Galen T. Chu--В ролях: Ник Офферман, Адам Дивайн, Саймон Пегг, Дженнифер Лопез, Мелисса Рауш, Стефани Беатриз, Джон Легуизамо, Макс Гринфилд, Шонн Уильям Скотт, Дэнис Лири--Описание: Отчаянная погоня за неуловимым желудем катапультирует Скрата прямо в космос, где он случайно запускает целую серию космических событий. Именно они изменят весь мир Ледникового периода и станут реальной угрозой для него. Чтобы спастись, Сид, Мэнни, Диего и остальные звери должны покинуть свои дома, отправиться в забавное и захватывающее приключение в экзотические новые земли и встретиться со множеством красочных новых персонажей.-- --Качество видео: HDRip
Контейнер: AVI
Видео кодек: XviD
Аудио кодек: AC3
Видео: 720x304 (2.37:1), 23.976 fps, XviD build 50 ~1676 kbps avg, 0.32 bit/pixel
Аудио: 48 kHz, AC3 Dolby Digital, 3/2 (L,C,R,l,r) + LFE ch, ~384 kbps
Cубтитры: отсутствуют.
Общее
Полное имя : H:\Torrent2\LedniKoviy.PerioD.2O16.D.HDRip.14OOMB.avi
Формат : AVI
Формат/Информация : Audio Video Interleave
Размер файла : 1,37 Гбайт
Продолжительность : 1 ч. 34 м.
Общий поток : 2070 Кбит/сек
Программа кодирования : VirtualDubMod 1.5.10.2 (build 2540/release)
Библиотека кодирования : VirtualDubMod build 2540/release
Видео
Идентификатор : 0
Формат : MPEG-4 Visual
Профиль формата : Advanced [email protected]
Параметр BVOP формата : 2
Параметр QPel формата : Нет
Параметр GMC формата : Без точки перехода
Параметр матрицы формата : Default (MPEG)
Идентификатор кодека : XVID
Идентификатор кодека/Подсказка : XviD
Продолжительность : 1 ч. 34 м.
Битрейт : 1677 Кбит/сек
Ширина : 720 пикселей
Высота : 304 пикселя
Соотношение сторон : 2,35:1
Частота кадров : 23,976 (24000/1001) кадра/сек
Цветовое пространство : YUV
Субдискретизация насыщенности : 4:2:0
Битовая глубина : 8 бит
Тип развёртки : Прогрессивная
Метод сжатия : С потерями
Бит/(Пиксели*Кадры) : 0.320
Размер потока : 1,11 Гбайт (81%)
Библиотека кодирования : XviD 1.2.1 (UTC 2008-12-04)
Аудио
Идентификатор : 1
Формат : AC-3
Формат/Информация : Audio Coding 3
Расширение режима : CM (complete main)
Параметр Endianness формата : Big
Идентификатор кодека : 2000
Продолжительность : 1 ч. 34 м.
Вид битрейта : Постоянный
Битрейт : 384 Кбит/сек
Каналы : 6 каналов
Расположение каналов : Front: L C R, Side: L R, LFE
Частота : 48,0 КГц
Частота кадров : 31,250 кадров/сек (1536 spf)
Метод сжатия : С потерями
Размер потока : 260 Мбайт (19%)
Выравнивание : Разделение по промежуткам
Продолжительность промежутка : 42 мс. (1,00 видеокадр)
Время предзагрузки промежутка : 500 мс.
Трейлер
Download / Скачать

Хотите скачать бесплатно? Зарегистрируйтесь на сайте (ссылка на регистрацию). Pirat.ca - самый быстрый торрент трекер в рунете!

Как скачивать  ·   Что такое торрент  ·   Рейтинг и ограничения

aleksey99 ®

282377

Пост 30-Сен-2016 14:19 (спустя 5 часов)

[Q] 

WEB-DLRip заменён на HDRip

_________________

[Профиль]  [ЛС] 

somik

Легенда

26892

Пост 30-Сен-2016 14:20 (спустя 1 минута)

[Q] 

Наш модератор как Флагман: мы впереди всего СНГ... Значит скоро другие начнут просыпаться. Всем качать!!! Пиратка рулит!

_________________
Всё когда-нибудь уже было... В интернете!
[Профиль]  [ЛС] 

Sakoru

Корсар

Пост 30-Сен-2016 16:56 (спустя 2 часа 35 минут)

[Q] 

Можно посмеяться)

_________________
[Профиль]  [ЛС] 

shayhi79

Морской Волк

Пост 03-Окт-2016 17:26 (спустя 3 дня)

[Q] 

Спасибо, Автору респект!!!
[Профиль]  [ЛС] 

Towelie

Корсар

13

Пост 09-Окт-2016 13:19 (спустя 5 дней)

[Q] 

спс Автору респект!!!
[Профиль]  [ЛС] 

Пост 31-Окт-2016 08:35 (спустя 21 день)

Топик был перенесен из форума Новинки (HD|DVD|BD| TV|SAT|PDTV| - Rips) в форум Зарубежные полнометражные мультфильмы
aleksey99
 

Ливень

Корсар

Пост 05-Дек-2016 14:37 (спустя 1 месяц 27 дней)

[Q] 

Первые части повеселей были
[Профиль]  [ЛС] 
Показать сообщения:    
Ответить на тему

Текущее время: Сегодня 20:20

Часовой пояс: GMT + 4



Вы не можете начинать темы
Вы не можете отвечать на сообщения
Вы не можете редактировать свои сообщения
Вы не можете удалять свои сообщения
Вы не можете голосовать в опросах
Вы не можете прикреплять файлы к сообщениям
Вы не можете скачивать файлы

▼ Вниз