ML
     
  Уважаемый Гость!
Вы можете поддержать проект и зарегистрироваться у наших партнеров - онлайн-стратегия MyLands. При регистрации в игре Вы получите код, который сможете активировать после регистрации на pirat.ca и получить 1000 дублонов.

Ваш код:
193c38d0130f05c24de871678ea3ac181461757d
 
     

Утиные истории: Заветная лампа / DuckTales the Movie: Treasure of the Lost Lamp (Боб Хэчкок / Bob Hathcock) [1990 г., приключения, семейный, 6+, WEB-DL, 720p] Dub [Нева-фильм 2005, Ukr] + DVO [П. Гланц и Т. Казакова] + Orig (Eng) + Sub (Rus, Ukr,Eng)

Ответить на тему
 
Автор
Сообщение

Пост 03-Окт-2016 10:49

[Q] 

somik

Легенда

-Утиные истории: Заветная лампа / Утиные истории: Сокровище потерянной лампы / DuckTales the Movie: Treasure of the Lost Lamp-- Производство: Франция, США, Walt Disney Pictures
Режиссер: Боб Хэчкок / Bob Hathcock
Жанр: мультфильм, фэнтези, комедия, приключения, семейный, 6+
Год выпуска: 1990 г.
Продолжительность: 01:13:51
Мировая премьера: 3 августа 1990
Российская премьера: 5 октября 2009, «ВС трейд»
Перевод: Профессиональный (полное дублирование) [Нева-фильм 2005]
Перевод 2: Профессиональный (двухголосый, закадровый) [Пётр Гланц и Татьяна Казакова]
Перевод 3: Профессиональный (полное дублирование) [Ukrainian]
Оригинальный аудиопоток: английский
Роли озвучивали: Алан Янг, Теренс МакГоверн, Расси Тейлор, Ричард Либертини, Кристофер Ллойд, Джун Форэй, Чак МакКанн, Джоан Гербер, Рип Тейлор, Чарльз Адлер
Роли дублировали Валерий Кухарешин, Александр Лушин, Марианна Мокшина, Снежина Копрова, Максим Сергеев, ...-Описание: Запрыгивайте на верблюда, хватайте карту и приготовьтесь к захватывающему веселому приключению вместе с любимыми пернатыми друзьями Скруджем МакДаком, Хьюи, Дьюи, Луи и Веббигейл Вандеркваком!
Присоединяйтесь к команде Утиных Историй, пересекающих египетскую пустыню в бесстрашном поиске легендарных сокровищ Колли Бабы. Захватывающие моменты будут преследовать главных героев на каждом шагу, по мере приближения к сказочным сокровищам, а злой маг Мерлок будет идти по пятам. Но смелые утки и не могли предположить, что вместе с сокровищами найдут волшебную лампу с настоящим джином, исполняющим желания!
Наполненный весельем, приключениями и обожаемыми героями, фильм «Утиные истории: Заветная лампа» — истинная классика студии Disney, которой насладится вся Ваша семья!-Сэмпл IMDB КиноПоиск
Качество видео: WEB-DL
Контейнер: MKV
Стандарт разрешения: 720p
Видео кодек: MPEG4 AVC
Аудио кодек: AC3
Видео: 1206x720 at 23.976 fps, MPEG-4 AVC, 4000 kbps avg
Аудио #1: 48 kHz, AC3, 2/0 (L,R) ch, 192.00 kbps avg
Аудио #2: 48 kHz, AC3, 2/0 (L,R) ch, 192.00 kbps avg
Аудио #3: 48 kHz, AC3, 1/0 (С) ch, 192.00 kbps avg
Аудио #3: 48 kHz, AC3, 2/0 (L,R) ch, 192.00 kbps avg
Cубтитры: русские, украинские, английские
Формат субтитров: softsub (SRT)
Доп. информация о субтитрах: включаемые
Сцена, в которой утки находят пирамиду в песках и откапывают её, взята из рассказа Карла Баркса «Pyramid Shame».
Более верный перевод оригинального названия — «Утиные истории. Фильм — Сокровище потерянной лампы».
Прекрасная вариация на тему Аладдина. Особенно хорошо озвучил злодея Мерлока — Кристофер Ллойд. Мультфильм учит нести ответственность за того, кого «приручил», пусть даже это Джинн. Фильм имеет приятный музыку, сочетающуюся с происходящим на экране. Сценаристы хорошо показали двуличность Дижона, любовь племянников и прислуги к Скруджу (даже когда он оказался в беде), использование амулета Мерлоком.
Минусом лишь считаю, что фильм не был дублирован в начале 90-х полюбившимися по сериалу актёрами.
Фильм можно пересматривать несколько раз.
Общее
Уникальный идентификатор : 247314687544820036310162998142478793483 (0xBA0F1384A82CE1B5BD20483CE3173B0B)
Полное имя : D:\D\Утиные истории\DuckTales.Treasure of the Lost Lamp.1990.720p.WEB-DL.[pirat.ca].mkv
Формат : Matroska
Версия формата : Version 2
Размер файла : 2,49 Гбайт
Продолжительность : 1 ч. 13 м.
Общий поток : 4821 Кбит/сек
Название фильма : DuckTales: The Movie - Treasure of the Lost Lamp (1990)
Дата кодирования : UTC 2016-10-03 06:14:33
Программа кодирования : mkvmerge v5.3.0 ('I could have danced') built on Feb 9 2012 10:38:07
Библиотека кодирования : libebml v1.2.3 + libmatroska v1.3.0
Видео
Идентификатор : 1
Формат : AVC
Формат/Информация : Advanced Video Codec
Профиль формата : [email protected]
Параметр CABAC формата : Нет
Параметр ReFrames формата : 2 кадра
Идентификатор кодека : V_MPEG4/ISO/AVC
Продолжительность : 1 ч. 13 м.
Битрейт : 3957 Кбит/сек
Ширина : 1206 пикселей
Высота : 720 пикселей
Соотношение сторон : 5:3
Режим частоты кадров : Постоянный
Частота кадров : 23,976 кадра/сек
Цветовое пространство : YUV
Субдискретизация насыщенности : 4:2:0
Битовая глубина : 8 бит
Тип развёртки : Прогрессивная
Бит/(Пиксели*Кадры) : 0.190
Размер потока : 2,04 Гбайт (82%)
Заголовок : DuckTales: The Movie - Treasure of the Lost Lamp (1990)
Язык : English
Default : Да
Forced : Нет
Цветовой диапазон : Limited
Основные цвета : BT.709
Характеристики трансфера : BT.709
Коэффициенты матрицы : BT.709
Аудио #1
Идентификатор : 2
Формат : AC-3
Формат/Информация : Audio Coding 3
Профиль формата : Dolby Digital
Расширение режима : CM (complete main)
Параметр Endianness формата : Big
Идентификатор кодека : A_AC3
Продолжительность : 1 ч. 13 м.
Вид битрейта : Постоянный
Битрейт : 192 Кбит/сек
Каналы : 2 канала
Расположение каналов : Front: L R
Частота : 48,0 КГц
Частота кадров : 31,250 кадров/сек (1536 spf)
Метод сжатия : С потерями
Размер потока : 101 Мбайт (4%)
Заголовок : DD 2.0 @ 192 kbps @ Дубляж
Язык : Russian
Default : Да
Forced : Нет
Аудио #2
Идентификатор : 3
Формат : AC-3
Формат/Информация : Audio Coding 3
Профиль формата : Dolby Digital
Расширение режима : CM (complete main)
Параметр Endianness формата : Big
Идентификатор кодека : A_AC3
Продолжительность : 1 ч. 13 м.
Вид битрейта : Постоянный
Битрейт : 192 Кбит/сек
Каналы : 2 канала
Расположение каналов : Front: L R
Частота : 48,0 КГц
Частота кадров : 31,250 кадров/сек (1536 spf)
Метод сжатия : С потерями
Размер потока : 101 Мбайт (4%)
Заголовок : DD 2.0 @ 192 kbps @ DVO, Пётр Гланц и Татьяна Казакова
Язык : Russian
Default : Нет
Forced : Нет
Аудио #3
Идентификатор : 4
Формат : AC-3
Формат/Информация : Audio Coding 3
Расширение режима : CM (complete main)
Параметр Endianness формата : Big
Идентификатор кодека : A_AC3
Продолжительность : 1 ч. 13 м.
Вид битрейта : Постоянный
Битрейт : 192 Кбит/сек
Каналы : 1 канал
Расположение каналов : Front: C
Частота : 48,0 КГц
Частота кадров : 31,250 кадров/сек (1536 spf)
Метод сжатия : С потерями
Размер потока : 101 Мбайт (4%)
Заголовок : DD 1.0 @ 192 kbps @ Дубляж
Язык : Ukrainian
Default : Нет
Forced : Нет
Аудио #4
Идентификатор : 5
Формат : AC-3
Формат/Информация : Audio Coding 3
Профиль формата : Dolby Digital
Расширение режима : CM (complete main)
Параметр Endianness формата : Big
Идентификатор кодека : A_AC3
Продолжительность : 1 ч. 13 м.
Вид битрейта : Постоянный
Битрейт : 192 Кбит/сек
Каналы : 2 канала
Расположение каналов : Front: L R
Частота : 48,0 КГц
Частота кадров : 31,250 кадров/сек (1536 spf)
Метод сжатия : С потерями
Размер потока : 101 Мбайт (4%)
Заголовок : DD 2.0 @ 192 kbps @ Original from DVD
Язык : English
Default : Нет
Forced : Нет
Текст #1
Идентификатор : 6
Формат : UTF-8
Идентификатор кодека : S_TEXT/UTF8
Идентификатор кодека/Информация : UTF-8 Plain Text
Заголовок : Russian @ SRT
Язык : Russian
Default : Нет
Forced : Нет
Текст #2
Идентификатор : 7
Формат : UTF-8
Идентификатор кодека : S_TEXT/UTF8
Идентификатор кодека/Информация : UTF-8 Plain Text
Заголовок : Ukrainian @ SRT
Язык : Ukrainian
Default : Нет
Forced : Нет
Текст #3
Идентификатор : 8
Формат : UTF-8
Идентификатор кодека : S_TEXT/UTF8
Идентификатор кодека/Информация : UTF-8 Plain Text
Заголовок : English @ SRT
Язык : English
Default : Нет
Forced : Нет
Меню
00:00:00.000 : en:Opening Titles/Finding The Map
00:06:22.000 : en:The Lost Pyramid
00:18:50.000 : en:The Genie Is Released
00:27:26.000 : en:The Meanest Master
00:31:56.000 : en:Merlock The Rat
00:36:49.000 : en:The Jig Is Up
00:42:56.000 : en:Scrooge On The Run
00:48:27.000 : en:The Unlikely Master
00:52:00.000 : en:Scrooge Behind Bars
00:55:14.000 : en:Fighting Back
00:59:35.000 : en:Merlock's Back In Charge
01:06:09.000 : en:The Ultimate Wish/End Credits
Download / Скачать

Хотите скачать бесплатно? Зарегистрируйтесь на сайте (ссылка на регистрацию). Pirat.ca - самый быстрый торрент трекер в рунете!

Как скачивать  ·   Что такое торрент  ·   Рейтинг и ограничения

Показать сообщения:    
Ответить на тему

Текущее время: Сегодня 18:05

Часовой пояс: GMT + 4



Вы не можете начинать темы
Вы не можете отвечать на сообщения
Вы не можете редактировать свои сообщения
Вы не можете удалять свои сообщения
Вы не можете голосовать в опросах
Вы не можете прикреплять файлы к сообщениям
Вы не можете скачивать файлы

▼ Вниз