ML
     
  Уважаемый Гость!
Вы можете поддержать проект и зарегистрироваться у наших партнеров - онлайн-стратегия MyLands. При регистрации в игре Вы получите код, который сможете активировать после регистрации на pirat.ca и получить 1000 дублонов.

Ваш код:
500cb7bd8d2cec9a8aba647a87ce41c4b76f06bd
 
     

Союз зверей / Die Konferenz der Tiere (Райнхард Клоосс / Reinhard Klooss) [2010 г., мультфильм, комедия, приключения, семейный, BDRip-AVC] Dub

Ответить на тему
 
Автор
Сообщение

Пост 07-Окт-2016 13:46

[Q] 

somik

Легенда

-Союз зверей / Die Konferenz der Tiere-- Производство: Германия, Ambient Entertainment GmbH, Constantin Film Produktion GmbH
Режиссер: Райнхард Клоосс / Reinhard Klooss
Жанр: мультфильм, комедия, приключения, семейный
Год выпуска: 2010 г.
Продолжительность: 01:33:06
Мировая премьера: 7 октября 2010
Российская премьера: 28 октября 2010, «Люксор», «Каропрокат»
Перевод: Профессиональный (полное дублирование)
Роли озвучивали: Вадим Галыгин, Илья Любимов, Тимур Родригез, Иван Жарков, Андрей Чижов, Любовь Германова, Вероника Саркисова, Пётр Иващенко, ...-Описание: Команда веселых зверей нашла зеленый оазис посреди засушливой африканской пустыни, чтобы там поселиться. Но их жизнь оказалась под угрозой — река Окаванго стала быстро пересыхать. Друзья выясняют, что в этом виноваты люди, которые построили дамбу. Звери, — такие разные, — от льва до трусливого суслика, — объединяются в союз, чтобы бросить вызов людям и спасти долину! Смешная ватага разношерстных, винторогих и парнокопытных устроит развеселую жизнь людям и наведет свой «порядок» на дамбе!-Сэмпл IMDB КиноПоиск
Качество видео: BDRip-AVC
Контейнер: MKV
Видео кодек: MPEG4 AVC
Аудио кодек: AC3
Видео: 1016x432 (2,35:1); 23,976 fps; 1752 kbps; 0.166 bit/pixel
Аудио: AC3, 6 ch., 48 kHz, ~448.00 kbps
Cубтитры: отсутствуют
Европейская киноакадемия, 2011 год
Номинации (1):
Приз зрительских симпатий за лучший фильм
Этот мультфильм, пожалуй, первый за последние несколько лет, который снят исключительно для детей. Нет пошлости, нет глубоких и совершенно непонятных для детей метафор. В нем все просто и понятно, простая проблема, простые и банальные для взрослых слова про спасение природы призваны объяснить прописные истины детям возраста 8-13 лет, которые в том же Шреке или Мадагаскаре многих шуток и линий просто не могли понять в силу возраста. Сейчас стало модным делать мульты и для детей, и для взрослых одновременно, чтобы кассу поднять. Так вот, этот мульт именно для детей и ставить ему за это низкий балл — по-моему безнравственно. Яркие и симпатичные животные под красивую музыку простым языком объясняют детям важность природы и ее спасения — это ли не хороший мультфильм для детей?
Меж тем минут 10 смеялся после шутки с орлом и кротом (кто видел, поймет о чем я). Не очень, кстати, понятно, зачем надо было делать такую страшную короткостриженную девочку?! Плюс, когда ребенок гладит льва в клетке, а потом выпускает его наружу — довольно сомнительный пример для подражания. Но в целом — очень хороший, добрый, доступный для детей мультфильм
9 из 10
Общее
Уникальный идентификатор : 188220864172523347689573214501094267258 (0x8D9A0514AE90154CB607919B4FD7997A)
Полное имя : C:\герои 7\Союз зверей\Soyuz zverey.2010.BDRip-AVC.[pirat.ca].mkv
Формат : Matroska
Версия формата : Version 2
Размер файла : 1,43 Гбайт
Продолжительность : 1 ч. 33 м.
Общий поток : 2199 Кбит/сек
Дата кодирования : UTC 2016-10-07 09:22:16
Программа кодирования : mkvmerge v5.3.0 ('I could have danced') built on Feb 9 2012 10:38:07
Библиотека кодирования : libebml v1.2.3 + libmatroska v1.3.0
Видео
Идентификатор : 1
Формат : AVC
Формат/Информация : Advanced Video Codec
Профиль формата : [email protected]
Параметр CABAC формата : Да
Параметр ReFrames формата : 12 кадров
Режим смешивания : Header stripping
Идентификатор кодека : V_MPEG4/ISO/AVC
Продолжительность : 1 ч. 33 м.
Битрейт : 1752 Кбит/сек
Ширина : 1016 пикселей
Высота : 432 пикселя
Соотношение сторон : 2,35:1
Режим частоты кадров : Постоянный
Частота кадров : 23,976 (24000/1001) кадра/сек
Цветовое пространство : YUV
Субдискретизация насыщенности : 4:2:0
Битовая глубина : 8 бит
Тип развёртки : Прогрессивная
Бит/(Пиксели*Кадры) : 0.166
Размер потока : 1,11 Гбайт (78%)
Заголовок : Soyuz zverey.2010.BDRip-AVC
Библиотека кодирования : x264 core 116 r2019M 9cc407d
Настройки программы : cabac=1 / ref=13 / deblock=1:-2:-2 / analyse=0x3:0x133 / me=umh / subme=9 / psy=1 / psy_rd=1.00:0.20 / mixed_ref=1 / me_range=48 / chroma_me=1 / trellis=1 / 8x8dct=1 / cqm=0 / deadzone=21,11 / fast_pskip=0 / chroma_qp_offset=-3 / threads=8 / sliced_threads=0 / nr=0 / decimate=1 / interlaced=0 / bluray_compat=0 / constrained_intra=0 / bframes=10 / b_pyramid=1 / b_adapt=2 / b_bias=0 / direct=3 / weightb=1 / open_gop=0 / weightp=2 / keyint=230 / keyint_min=23 / scenecut=40 / intra_refresh=0 / rc_lookahead=40 / rc=2pass / mbtree=1 / bitrate=1752 / ratetol=1.0 / qcomp=0.60 / qpmin=10 / qpmax=51 / qpstep=4 / cplxblur=20.0 / qblur=0.5 / ip_ratio=1.37 / aq=1:1.20
Язык : English
Default : Да
Forced : Нет
Аудио
Идентификатор : 2
Формат : AC-3
Формат/Информация : Audio Coding 3
Расширение режима : CM (complete main)
Параметр Endianness формата : Big
Режим смешивания : Header stripping
Идентификатор кодека : A_AC3
Продолжительность : 1 ч. 33 м.
Вид битрейта : Постоянный
Битрейт : 448 Кбит/сек
Каналы : 6 каналов
Расположение каналов : Front: L C R, Side: L R, LFE
Частота : 48,0 КГц
Частота кадров : 31,250 кадров/сек (1536 spf)
Метод сжатия : С потерями
Задержка видео : 28 мс.
Размер потока : 298 Мбайт (20%)
Заголовок : DUB
Язык : Russian
Default : Да
Forced : Да
Download / Скачать

Хотите скачать бесплатно? Зарегистрируйтесь на сайте (ссылка на регистрацию). Pirat.ca - самый быстрый торрент трекер в рунете!

Как скачивать  ·   Что такое торрент  ·   Рейтинг и ограничения

Показать сообщения:    
Ответить на тему

Текущее время: Сегодня 01:47

Часовой пояс: GMT + 4



Вы не можете начинать темы
Вы не можете отвечать на сообщения
Вы не можете редактировать свои сообщения
Вы не можете удалять свои сообщения
Вы не можете голосовать в опросах
Вы не можете прикреплять файлы к сообщениям
Вы не можете скачивать файлы

▼ Вниз