ML
     
  Уважаемый Гость!
Вы можете поддержать проект и зарегистрироваться у наших партнеров - онлайн-стратегия MyLands. При регистрации в игре Вы получите код, который сможете активировать после регистрации на pirat.ca и получить 1000 дублонов.

Ваш код:
fcd618d94adc1456bccbde5047c9cd0930e4ae4d
 
     

Аида из Арбореи / Aida degli alberi (Гвидо Манули / Guido Manuli) [2001 г., мультфильм, фэнтези, мюзикл, семейный. 0+, DVDRip] MVO [R5]

Ответить на тему
 
Автор
Сообщение

Пост 11-Окт-2016 15:24

[Q] 

somik

Легенда

-Аида из Арбореи / Aida degli alberi-- Производство: Италия, Великобритания, Lanterna Magica
Режиссер: Гвидо Манули / Guido Manuli
Жанр: мультфильм, фэнтези, мюзикл, семейный. 0+
Год выпуска: 2001 г.
Продолжительность: 01:12:25
Мировая премьера: 21 декабря 2001
Российская премьера: 22 марта 2007, «Союз-Видео»
Перевод: Профессиональный (многоголосый, закадровый) [R5]
Роли озвучивали: Vittorio Bestoso, Массимо Битосси, Симона Д’Андреа, Иво Де Пальма, Мишель Ди Мауро, Роберта Лоуренти, Gianni Gaude, Энцо Лаччетти, Чиро Импарато, Джино Лана
...-Описание: Злобный каменный дракон Сатам и его преспешники из города Петра объявили войну мирному древесному народу Арбореи. Прекрасная принцесса Аида, дочь арборейского короля, была похищена и стала служанкой во дворце петранцев. Там она познакомилась с Радамесом — солдатом Петры. Радамес и Аида полюбили друг друга и теперь эта ужасная война может разделить их. Сможет ли любовь и верная дружба вернуть мир в волшебную страну?-Сэмпл IMDB КиноПоиск
Качество видео: DVDRip
Контейнер: AVI
Видео кодек: XviD
Аудио кодек: AC3
Видео: 720x384 (1.88:1), 25 fps, XviD build 47 ~2504 kbps avg, 0.36 bit/pixel
Аудио: 48 kHz, AC3 Dolby Digital, 2/0 (L,R) ch, ~192 kbps
Cубтитры: отсутствуют
Мультфильм зачётный, но не более того. Пишу положительную рецензию в основном потому, что он всё-таки приятно бросается в глаза на общем фоне мультипликационной индустрии, богатой однотипными сюжетами и персонажами-клише.
Здесь клишеобразность не выпирает, но всё-таки очевидна. Хотя действие происходит в параллельном мире (то ли постапокалиптическом, то ли допотопном), сюжет довольно знаком и архетипен: принц и принцесса враждебных кланов полюбили друг друга и принесли мир своим народам. Увы, со времён домов Монтекки и Капулетти эта схема была многократно затёрта в громадной веренице книг, фильмов и мультфильмов. Злобный правитель Петры — типичный главный злодей. Он просто злой и всё. Этим его личность и исчерпывается. В Аиде угадывается принцесса Мононоке (впрочем, возможно, авторы мультфильма обошлись без влияния Миядзаки, ибо образ красивой и вольнолюбивой дикарки в культуре давно не нов). Ну и, конечно, наивный толстяк — тугоумный, неповоротливый, нескладный — типичный комичный персонаж.
Стоит подметить и сильные стороны: диалоги, мимика героев, многие выразительные средства отличаются от мультфильм от привычных широкому зрителю лент американского кинематографа. На лицо нарождающийся мейнстрим итальянской анимации, пока ещё далеко не зрелый, но пытающийся с переменным успехом нащупать свой самобытный путь. Поэтому в качестве поощрения:
8,5 из 10
Общее
Полное имя : J:\Аида из Арбореи\Aida.iz.Arborei.2001.DVDRip.[pirat.ca].avi
Формат : AVI
Формат/Информация : Audio Video Interleave
Размер файла : 1,37 Гбайт
Продолжительность : 1 ч. 12 м.
Общий поток : 2703 Кбит/сек
Программа кодирования : VirtualDubMod 1.5.4.1 (build 2178/release)
Библиотека кодирования : VirtualDubMod build 2178/release
Видео
Идентификатор : 0
Формат : MPEG-4 Visual
Профиль формата : Advanced [email protected]
Параметр BVOP формата : 1
Параметр QPel формата : Нет
Параметр GMC формата : Без точки перехода
Параметр матрицы формата : Выборочная
Идентификатор кодека : XVID
Идентификатор кодека/Подсказка : XviD
Продолжительность : 1 ч. 12 м.
Битрейт : 2504 Кбит/сек
Ширина : 720 пикселей
Высота : 384 пикселя
Соотношение сторон : 1,85:1
Частота кадров : 25,000 кадров/сек
Цветовое пространство : YUV
Субдискретизация насыщенности : 4:2:0
Битовая глубина : 8 бит
Тип развёртки : Прогрессивная
Метод сжатия : С потерями
Бит/(Пиксели*Кадры) : 0.362
Размер потока : 1,27 Гбайт (93%)
Библиотека кодирования : XviD 1.2.0.dev47 (UTC 2006-11-01)
Аудио
Идентификатор : 1
Формат : AC-3
Формат/Информация : Audio Coding 3
Расширение режима : CM (complete main)
Параметр Endianness формата : Big
Идентификатор кодека : 2000
Продолжительность : 1 ч. 12 м.
Вид битрейта : Постоянный
Битрейт : 192 Кбит/сек
Каналы : 2 канала
Расположение каналов : Front: L R
Частота : 48,0 КГц
Частота кадров : 31,250 кадров/сек (1536 spf)
Метод сжатия : С потерями
Размер потока : 99,4 Мбайт (7%)
Выравнивание : Разделение по промежуткам
Продолжительность промежутка : 96 мс. (2,40 видеокадра)
Время предзагрузки промежутка : 96 мс.
Download / Скачать

Хотите скачать бесплатно? Зарегистрируйтесь на сайте (ссылка на регистрацию). Pirat.ca - самый быстрый торрент трекер в рунете!

Как скачивать  ·   Что такое торрент  ·   Рейтинг и ограничения

KoNiaL_KCC

Гроза морей

Пост 11-Окт-2016 18:16 (спустя 2 часа 52 минуты)

[Q] 

спс, качаю
[Профиль]  [ЛС] 

KoNiaL_KCC

Гроза морей

Пост 12-Окт-2016 11:02 (спустя 16 часов)

[Q] 

скачал, качество отличное перевод тоже, останусь пока на раздаче Автору респект!!! Лови бочку
[Профиль]  [ЛС] 
Показать сообщения:    
Ответить на тему

Текущее время: Сегодня 12:53

Часовой пояс: GMT + 4



Вы не можете начинать темы
Вы не можете отвечать на сообщения
Вы не можете редактировать свои сообщения
Вы не можете удалять свои сообщения
Вы не можете голосовать в опросах
Вы не можете прикреплять файлы к сообщениям
Вы не можете скачивать файлы

▼ Вниз