ML
     
  Уважаемый Гость!
Вы можете поддержать проект и зарегистрироваться у наших партнеров - онлайн-стратегия MyLands. При регистрации в игре Вы получите код, который сможете активировать после регистрации на pirat.ca и получить 1000 дублонов.

Ваш код:
4fbd9898b6f10799a3e8edf60f31febd2bc15453
 
     

Аида из Арбореи / Aida degli alberi (Гуидо Манули / Guido Manuli) [2001 г., мультфильм, комедия, мюзикл, семейный, 0+, DVDRip-AVC] MVO (Лицензия R5)

Ответить на тему
 
Автор
Сообщение

Пост 12-Окт-2016 00:36

[Q] 

somik

Легенда

-Аида из Арбореи / Aida degli alberi-- Производство: Италия, Великобритания, Lanterna Magica
Режиссер: Гуидо Манули / Guido Manuli
Жанр: мультфильм, комедия, мюзикл, семейный, 0+
Год выпуска: 2001 г.
Продолжительность: 01:12:25
Мировая премьера: 21 декабря 2001
Российская премьера: 22 марта 2007, «Союз-Видео»
Перевод: Профессиональный (многоголосый, закадровый) [R5]
Роли озвучивали: Vittorio Bestoso, Массимо Битосси, Симона Д’Андреа, Иво Де Пальма, Мишель Ди Мауро, Роберта Лоуренти, Gianni Gaude, Энцо Лаччетти, Чиро Импарато, Джино Лана, ...-Описание: Злобный каменный дракон Сатам и его преспешники из города Петра объявили войну мирному древесному народу Арбореи. Прекрасная принцесса Аида, дочь арборейского короля, была похищена и стала служанкой во дворце петранцев. Там она познакомилась с Радамесом — солдатом Петры. Радамес и Аида полюбили друг друга и теперь эта ужасная война может разделить их. Сможет ли любовь и верная дружба вернуть мир в волшебную страну?-Сэмпл IMDB КиноПоиск
Качество видео: DVDRip-AVC
Контейнер: MKV
Видео кодек: MPEG4 AVC
Аудио кодек: AC3
Видео: 2000 Кбит/сек, 1024х546, 25,000 кадров/сек
Аудио: AC3, 192 Кбит/сек, 2 канала, 48,0 КГц
Cубтитры: отсутствуют
Общее
Уникальный идентификатор : 232270687306162774016132778936346089567 (0xAEBDB50A507879118BFE2311B690185F)
Полное имя : C:\герои 7\Аида из Арбореи.AVC\Aida.iz.Arborei.2001.DVDRip-AVC.[pirat.ca].mkv
Формат : Matroska
Версия формата : Version 2
Размер файла : 1,11 Гбайт
Продолжительность : 1 ч. 12 м.
Общий поток : 2194 Кбит/сек
Дата кодирования : UTC 2016-10-14 20:20:28
Программа кодирования : mkvmerge v7.8.0 ('River Man') 32bit built on Apr 3 2015 12:11:22
Библиотека кодирования : libebml v1.3.1 + libmatroska v1.4.2
Видео
Идентификатор : 1
Формат : AVC
Формат/Информация : Advanced Video Codec
Профиль формата : [email protected]
Параметр CABAC формата : Да
Параметр ReFrames формата : 12 кадров
Идентификатор кодека : V_MPEG4/ISO/AVC
Продолжительность : 1 ч. 12 м.
Битрейт : 2000 Кбит/сек
Ширина : 1024 пикселя
Высота : 546 пикселей
Соотношение сторон : 1,85:1
Режим частоты кадров : Постоянный
Частота кадров : 25,000 кадров/сек
Цветовое пространство : YUV
Субдискретизация насыщенности : 4:2:0
Битовая глубина : 8 бит
Тип развёртки : Прогрессивная
Бит/(Пиксели*Кадры) : 0.143
Размер потока : 1014 Мбайт (89%)
Библиотека кодирования : x264 core 146 r2538 121396c
Настройки программы : cabac=1 / ref=12 / deblock=1:-1:-1 / analyse=0x3:0x113 / me=hex / subme=10 / psy=1 / psy_rd=1.00:0.15 / mixed_ref=1 / me_range=16 / chroma_me=1 / trellis=2 / 8x8dct=1 / cqm=0 / deadzone=21,11 / fast_pskip=1 / chroma_qp_offset=-3 / threads=6 / lookahead_threads=1 / sliced_threads=0 / nr=0 / decimate=1 / interlaced=0 / bluray_compat=0 / constrained_intra=0 / bframes=1 / b_pyramid=0 / b_adapt=2 / b_bias=0 / direct=0 / weightb=1 / open_gop=0 / weightp=2 / keyint=250 / keyint_min=25 / scenecut=40 / intra_refresh=0 / rc_lookahead=40 / rc=2pass / mbtree=1 / bitrate=2000 / ratetol=1.0 / qcomp=0.60 / qpmin=0 / qpmax=69 / qpstep=4 / cplxblur=20.0 / qblur=0.5 / ip_ratio=1.40 / aq=1:1.00
Default : Да
Forced : Нет
Аудио
Идентификатор : 2
Формат : AC-3
Формат/Информация : Audio Coding 3
Расширение режима : CM (complete main)
Параметр Endianness формата : Big
Идентификатор кодека : A_AC3
Продолжительность : 1 ч. 12 м.
Вид битрейта : Постоянный
Битрейт : 192 Кбит/сек
Каналы : 2 канала
Расположение каналов : Front: L R
Частота : 48,0 КГц
Частота кадров : 31,250 кадров/сек (1536 spf)
Метод сжатия : С потерями
Размер потока : 99,5 Мбайт (9%)
Default : Да
Forced : Нет
Download / Скачать

Хотите скачать бесплатно? Зарегистрируйтесь на сайте (ссылка на регистрацию). Pirat.ca - самый быстрый торрент трекер в рунете!

Как скачивать  ·   Что такое торрент  ·   Рейтинг и ограничения



Последний раз редактировалось: somik (2016-10-15 00:30), всего редактировалось 2 раз(а)

Пост 15-Окт-2016 09:08 (спустя 3 дня)

Топик был перенесен из форума Мультфильмы (Трюм) в форум Зарубежные полнометражные мультфильмы
erchine
 
Показать сообщения:    
Ответить на тему

Текущее время: Сегодня 20:01

Часовой пояс: GMT + 4



Вы не можете начинать темы
Вы не можете отвечать на сообщения
Вы не можете редактировать свои сообщения
Вы не можете удалять свои сообщения
Вы не можете голосовать в опросах
Вы не можете прикреплять файлы к сообщениям
Вы не можете скачивать файлы

▼ Вниз