ML
     
  Уважаемый Гость!
Вы можете поддержать проект и зарегистрироваться у наших партнеров - онлайн-стратегия MyLands. При регистрации в игре Вы получите код, который сможете активировать после регистрации на pirat.ca и получить 1000 дублонов.

Ваш код:
2932e5898d0a27592397f70b82a5834d1e70ea19
 
     

Большая рыба и Бегония / Big Fish & Begonia / Da Hai (Лян Сюань / Xuan Liang (as Liang Xuan)) [2016 г., мультфильм, приключения, фэнтези, драма, BDRip-AVC] MVO + (китайске hardsub)

Ответить на тему
 
Автор
Сообщение

Пост 16-Окт-2016 16:27

[Q] 

somik

Легенда

-Большая рыба и Бегония / Big Fish & Begonia / Da Hai-- Производство: Китай, B&T
Режиссер: Лян Сюань / Xuan Liang (as Liang Xuan)
Жанр: мультфильм, приключения, фэнтези, драма
Год выпуска: 2016 г.
Продолжительность: 01:40:35
Мировая премьера: 3 июля 2016
Перевод: Любительский (многоголосый, закадровый) [AniDub]
Роли озвучивали: Студийная Банда AD, Esther, Влад Дуров, BalFor, Давид Петросян, Торгиль, JAM, Demetra, Cuba77-Описание: Действие происходит в мире, существующем в нашей реальности, но неизвестном никому из людей. Тут живут существа, контролирующие приливы, смену сезонов и время в целом. Чунь, одна из жительниц этой вселенной, в свое шестнадцатилетие превращается в дельфина, чтобы посмотреть на жизнь людей.
Но в нашем мире девушка практически сразу попадает в шторм, и от гибели её — ценой собственной жизни, конечно, — спасает человеческий мальчик. Чунь таким событием впечатляется и решает вернуть мальчику жизнь. Но для этого ей придется защитить его душу, превратившуюся в маленькую рыбку.-Сэмпл IMDB КиноПоиск
Качество видео: BDRip-AVC
Контейнер: MKV
Видео кодек: MPEG4 AVC
Аудио кодек: AC3
Видео: 1024x432, 25.000 fps, 2084 kbps
Аудио: 48.0 kHz, AC3, 2 ch, 224 kbps
Cубтитры: китайские
Формат субтитров: hardsub (неотключаемые)
Общее
Уникальный идентификатор : 179931255189836807649676581656645785087 (0x875D7FCD8BB459B586A0DA7F8CCED5FF)
Полное имя : F:\Большая рыба и Бегония\Big Fish & Begonia.[pirat.ca].mkv
Формат : Matroska
Версия формата : Version 2
Размер файла : 1,62 Гбайт
Продолжительность : 1 ч. 40 м.
Общий поток : 2309 Кбит/сек
Дата кодирования : UTC 2016-10-16 05:38:34
Программа кодирования : mkvmerge v7.8.0 ('River Man') 32bit built on Apr 3 2015 12:11:22
Библиотека кодирования : libebml v1.3.1 + libmatroska v1.4.2
Видео
Идентификатор : 1
Формат : AVC
Формат/Информация : Advanced Video Codec
Профиль формата : [email protected]
Параметр CABAC формата : Да
Параметр ReFrames формата : 8 кадров
Идентификатор кодека : V_MPEG4/ISO/AVC
Продолжительность : 1 ч. 40 м.
Битрейт : 2084 Кбит/сек
Ширина : 1024 пикселя
Высота : 432 пикселя
Соотношение сторон : 2,40:1
Режим частоты кадров : Постоянный
Частота кадров : 25,000 кадров/сек
Цветовое пространство : YUV
Субдискретизация насыщенности : 4:2:0
Битовая глубина : 8 бит
Тип развёртки : Прогрессивная
Бит/(Пиксели*Кадры) : 0.188
Размер потока : 1,43 Гбайт (88%)
Библиотека кодирования : x264 core 146 r2538 121396c
Настройки программы : cabac=1 / ref=8 / deblock=1:-1:-1 / analyse=0x3:0x113 / me=umh / subme=10 / psy=1 / psy_rd=1.00:0.15 / mixed_ref=1 / me_range=24 / chroma_me=1 / trellis=2 / 8x8dct=1 / cqm=0 / deadzone=21,11 / fast_pskip=0 / chroma_qp_offset=-3 / threads=6 / lookahead_threads=1 / sliced_threads=0 / nr=0 / decimate=0 / interlaced=0 / bluray_compat=0 / constrained_intra=0 / bframes=7 / b_pyramid=2 / b_adapt=2 / b_bias=0 / direct=3 / weightb=1 / open_gop=0 / weightp=2 / keyint=250 / keyint_min=25 / scenecut=40 / intra_refresh=0 / rc_lookahead=40 / rc=2pass / mbtree=1 / bitrate=2084 / ratetol=1.0 / qcomp=0.60 / qpmin=0 / qpmax=69 / qpstep=4 / cplxblur=20.0 / qblur=0.5 / ip_ratio=1.40 / aq=1:1.00
Default : Да
Forced : Нет
Аудио
Идентификатор : 2
Формат : AC-3
Формат/Информация : Audio Coding 3
Расширение режима : CM (complete main)
Параметр Endianness формата : Big
Идентификатор кодека : A_AC3
Продолжительность : 1 ч. 40 м.
Вид битрейта : Постоянный
Битрейт : 224 Кбит/сек
Каналы : 2 канала
Расположение каналов : Front: L R
Частота : 48,0 КГц
Частота кадров : 31,250 кадров/сек (1536 spf)
Метод сжатия : С потерями
Размер потока : 161 Мбайт (10%)
Default : Да
Forced : Нет
Download / Скачать

Хотите скачать бесплатно? Зарегистрируйтесь на сайте (ссылка на регистрацию). Pirat.ca - самый быстрый торрент трекер в рунете!

Как скачивать  ·   Что такое торрент  ·   Рейтинг и ограничения

Раемия

Флибустьер

Пост 16-Окт-2016 17:37 (спустя 1 час 10 минут)

[Q] 

Мне мультик понравился! Спасибо!!!

_________________
Любите кроликов!!!…и они отплатят вам тем же…
[Профиль]  [ЛС] 
Показать сообщения:    
Ответить на тему

Текущее время: Сегодня 08:01

Часовой пояс: GMT + 4



Вы не можете начинать темы
Вы не можете отвечать на сообщения
Вы не можете редактировать свои сообщения
Вы не можете удалять свои сообщения
Вы не можете голосовать в опросах
Вы не можете прикреплять файлы к сообщениям
Вы не можете скачивать файлы

▼ Вниз