ML
     
  Уважаемый Гость!
Вы можете поддержать проект и зарегистрироваться у наших партнеров - онлайн-стратегия MyLands. При регистрации в игре Вы получите код, который сможете активировать после регистрации на pirat.ca и получить 1000 дублонов.

Ваш код:
ee1288b6f7c09d9d2cb2a0f972aba30460ce9333
 
     

Гнездо дракона / Dragon Nest: Warriors' Dawn (Юэфэн Сонг / Yuefeng Song) [2014 г., мультфильм, фэнтези, приключения, семейный, BDRip] Dub [Лицензия]

Ответить на тему
 
Автор
Сообщение

Пост 17-Окт-2016 04:03

[Q] 

somik

Легенда

-Гнездо дракона / Dragon Nest: Warriors' Dawn-- Производство: США, Китай, Франция
Режиссер: Юэфэн Сонг / Yuefeng Song
Жанр: мультфильм, фэнтези, приключения, семейный
Год выпуска: 2014 г.
Продолжительность: 01:30:05
Мировая премьера: 14 мая 2014
Российская премьера: 9 апреля 2015, «Парадиз», «АКМ»
Перевод: Профессиональный (полное дублирование) [Лицензия]
Роли озвучивали: Цзяо Сюй (Liya, озвучка), Гуаньлин Джи (Neilwin, озвучка), Йинг Хуан (Elena, озвучка), Давей Шен (Lambert, озвучка), Сянлонг Менг (Barnac, озвучка), Йе Сунь (Gerrant, озвучка), Тиан Джин (Argenta, озвучка), Хон Шан (Terram, озвучка), Цзытун Ся (Kasarana, озвучка), Блайт Оффарт (Liya and Kasarana, озвучка), Бьянка Коллинз (Argenta, озвучка), Саймон Джэглом (Terram, озвучка)
Роли дублировали: Ольга Голованова, Нина Александрова, Прохор Чеховской, Михаил Данилюк, Александр Воронов, ...-Описание: Кто бы мог подумать, что всегда неуклюжий, но несомненно талантливый парень станет великим героем, который спасет свою красивейшую планету от пробудившегося зла?
Много лет, пока легендарный Черный дракон спал, земля Алтера хранила хрупкий мир между расами людей, эльфов и неведомых нашему миру животных. Когда же он пробудился, охваченные ужасом жители были вынуждены бежать сквозь остров в попытке найти спасение.
Наш герой Ламберт в компании своих пушистых компаньонов отправляется в путь полный веселых развлечений и приключений, встречая настоящих друзей и любовь в лице прекрасной эльфийской девочки. Объединившись, они находят тайную дорогу к пещере дракона, а юный воин выполняет возложенную на него важнейшую миссию: он входит в доверие к Черному Дракону, чтобы с честью и юмором выйти победителем.-Сэмпл IMDB КиноПоиск
Качество видео: BDRip
Контейнер: AVI
Видео кодек: XviD
Аудио кодек: AC3
Видео: 704x384 (1.83:1), 24 fps, XviD build 73 ~1870 kbps avg, 0.29 bit/pixel
Аудио: 48 kHz, AC3 Dolby Digital, 3/2 (L,C,R,l,r) + LFE ch, ~448 kbps
Cубтитры: отсутствуют
История Воина
Летний анимационный сезон в этом году открывается историей от создателей «Кинг-Конга» и «Властелина Колец». «Гнездо Дракона» расскажет нам о приключениях паренька Ламберта, которому, по воле случая, придется сменить плащ дозорного на меч настоящего воина. Обходя лес утром, он вряд ли предполагал, что ему предстоит встреча с эльфийской принцессой, загадочными странниками и колдунами, которые объединяются ради одной цели — спасти земли Альтеры и Небесную Гавань от пробудившегося Черного Дракона.
Безусловно, авторы фильма сделали все, чтобы их творение было встречено с восторгом и детьми, и взрослыми. Фэнтезийный сюжет, который придется по вкусу фанатам книг Роберта Сальваторе или любителям игр Ragnarok и Final Fantasy, соседствует с мягким юмором и приключенческим духом настоящей семейной ленты. Основой для мультика послужила известная в среде мэйл. ру одноименная игра, поэтому за графическое исполнение переживать не приходится. Бюджет в $40 миллионов позволяет создателям разгуляться по полной, акцентируя внимание зрителя на детально прорисованных элементах экипировки наших героев и живописных просторах Ледяных Гор. Динамичные экшн-сцены, будь то поединки на мечах с лесными разбойниками или битвы с драконами, аккуратно балансируют сюжетную линию, не давая заскучать или испугаться маленькому зрителю. А уж шутки великана Барнака и забавные пушистые зверьки, сопровождающие Ламберта и Нарсиэль в их походе, добавляют ярких штрихов в общую канву мультфильма.
Пожалуй, после просмотра каждому захочется приметь на себя понравившийся образ. Кто-то из девчонок захочет быть прекрасной эльфийкой или колдуньей Аргентой, а если ты мечтаешь об отваге и непростом пути, то твой выбор падет на загадочного Вельскота. При всем этом, зрители постарше и фанаты анимэ оценят насыщенную и качественную картинку, а родители будут довольны увлекательной историей и точно будут знать, как выбрать меч своему маленькому воину. Размах проекта наводит на мысль о том, что продолжение не заставит себя ждать, пополняя тем самым линейку известных фэнтезийных анимационных историй.
Общее
Полное имя : E:\Гнездо дракона\Gnezdo Drakona.2014.D.BDRip.[pirat.ca].avi
Формат : AVI
Формат/Информация : Audio Video Interleave
Размер файла : 1,46 Гбайт
Продолжительность : 1 ч. 30 м.
Общий поток : 2326 Кбит/сек
Программа кодирования : VirtualDubMod 1.5.10.3 (build 2550/release)
Видео
Идентификатор : 0
Формат : MPEG-4 Visual
Профиль формата : Advanced [email protected]
Параметр BVOP формата : 2
Параметр QPel формата : Нет
Параметр GMC формата : Без точки перехода
Параметр матрицы формата : Выборочная
Идентификатор кодека : XVID
Идентификатор кодека/Подсказка : XviD
Продолжительность : 1 ч. 30 м.
Битрейт : 1868 Кбит/сек
Ширина : 704 пикселя
Высота : 384 пикселя
Соотношение сторон : 1,85:1
Частота кадров : 24,000 кадра/сек
Цветовое пространство : YUV
Субдискретизация насыщенности : 4:2:0
Битовая глубина : 8 бит
Тип развёртки : Прогрессивная
Метод сжатия : С потерями
Бит/(Пиксели*Кадры) : 0.288
Размер потока : 1,17 Гбайт (80%)
Библиотека кодирования : XviD 73
Аудио
Идентификатор : 1
Формат : AC-3
Формат/Информация : Audio Coding 3
Расширение режима : CM (complete main)
Параметр Endianness формата : Big
Идентификатор кодека : 2000
Продолжительность : 1 ч. 30 м.
Вид битрейта : Постоянный
Битрейт : 448 Кбит/сек
Каналы : 6 каналов
Расположение каналов : Front: L C R, Side: L R, LFE
Частота : 48,0 КГц
Частота кадров : 31,250 кадров/сек (1536 spf)
Метод сжатия : С потерями
Размер потока : 288 Мбайт (19%)
Выравнивание : Разделение по промежуткам
Продолжительность промежутка : 42 мс. (1,00 видеокадр)
Время предзагрузки промежутка : 500 мс.
Download / Скачать

Хотите скачать бесплатно? Зарегистрируйтесь на сайте (ссылка на регистрацию). Pirat.ca - самый быстрый торрент трекер в рунете!

Как скачивать  ·   Что такое торрент  ·   Рейтинг и ограничения

Показать сообщения:    
Ответить на тему

Текущее время: Сегодня 18:17

Часовой пояс: GMT + 4



Вы не можете начинать темы
Вы не можете отвечать на сообщения
Вы не можете редактировать свои сообщения
Вы не можете удалять свои сообщения
Вы не можете голосовать в опросах
Вы не можете прикреплять файлы к сообщениям
Вы не можете скачивать файлы

▼ Вниз