ML
     
  Уважаемый Гость!
Вы можете поддержать проект и зарегистрироваться у наших партнеров - онлайн-стратегия MyLands. При регистрации в игре Вы получите код, который сможете активировать после регистрации на pirat.ca и получить 1000 дублонов.

Ваш код:
0fcd44bd35319f69313aa6e53b31c51cbff1c942
 
     

Аномализа / Anomalisa (Дьюк Джонсон / Duke Johnson, ...) [2015 г., мультфильм, драма, мелодрама, комедия, BDRip, 1080p] Dub [Лицензия] + Original (Eng) + Sub (Rus, Eng)

Ответить на тему
 
Автор
Сообщение

Пост 17-Окт-2016 12:15

[Q] 

somik

Легенда

-Аномализа / Anomalisa-- Производство: США, Paramount Animation, Starburns Industries
Режиссер: Дьюк Джонсон / Duke Johnson, ...
Жанр: мультфильм, драма, мелодрама, комедия
Год выпуска: 2015 г.
Продолжительность: 01:30:36
Мировая премьера: 4 сентября 2015
Российская премьера: 23 мая 2016, «Новый Диск»
Перевод: Профессиональный (полное дублирование) [Лицензия]
Оригинальный аудиопоток: английский
Роли озвучивали: Дэвид Тьюлис, Дженнифер Джейсон Ли, Том Нунен
Роли дублировали: Александр Новиков, Татьяна Шитова, Андрей Гриневич-Описание: Сквозь призму драмы и комедии "Аномализа" повествует о человеке со скучным именем Майкл Стоун, авторе книг на тему обслуживания клиентов, который борется одновременно с собственными комплексами и неспособностью общаться с людьми. Картина, полная проникновенной музыки и мыслей, вряд ли оставит кого-то равнодушным.-Сэмпл IMDB КиноПоиск
Качество видео: BDRip
Контейнер: MKV
Стандарт разрешения: 1080p
Видео кодек: MPEG4 AVC
Аудио кодек: AC3
Видео: 5503 Кбит/с, 1920x800, 23.976 кадр/c
Аудио: AC3, 6 ch, 640 Кбит/с, 48,0 КГц
Аудио #2: DTS, 6 ch, 1509 Кбит/с, 48,0 КГц
Cубтитры: Русские, английские
Формат субтитров: softsub (SSA/ASS)
Доп. информация о субтитрах: включаемые
Оскар, 2016 год
Номинации (1):
Лучший анимационный фильм
Золотой глобус, 2016 год
Номинации (1):
Лучший анимационный фильм
Венецианский кинофестиваль, 2015 год
Победитель (2):
Особый приз жюри
Премия Future Film Festival Digital Award
Номинации (2):
Золотой лев
Приз Green Drop Award
Душевно и красиво
Как же приятно, что сейчас снимают что-то новое, нечто новаторское, не похожее на остальное. В этом и есть вся соль «Аномализы». Не скажу, что прям гениальное творение, или шедевр. Но без сомнения прекрасная работа. Работа проделана колоссальная, эта кукольная анимация не то что мила, нет, она какая-то человечная, жизненная что-ли. Мультфильм о человеке, который на время замкнулся в себе, он уже не видит счастья в этой жизни. А люди что с ним общаются для него пусты и глупы. Он не видит в них ничего, они ему попросту неинтересны. И лишь единственное, что его затронуло, что ему очень понравилось и он хотел этого снова и снова, так это тихий, немного хриплый голосок девушки/женщины что он встретил совершенно случайно в одном из номеров отеля, а звали её Лиза, или Аномализа. И для него она стала временным прибежищем вдали от своей депрессии, от своего одиночества, она и украсила его вечер.
Должен сказать, я обожаю кукольные мультфильмы, их производство очень тяжелый процесс, и поощерять такое не то что можно, а даже нужно. Ведь, в наше время таких мультфильмов выходит малое количество, правда я ещё «Маленького принца»(2015) не смотрел, вроде тоже обещает быть хорошим, ну посмотрим, будь что будет. Ну даже опираясь на то, что их мало, мультфильм грандиозный. Звёзды с неба не хватает конечно, но повторюсь, он прекрасен. И пусть теперь, вот пусть хоть кто-нибудь скажет или даже пикнет, что мультфильмы только для детей. Да я им это творение в горло затолкаю, и пусть поймут что неправы. Это же надо, сделать в наши дни мультфильм с рейтингом R, где демонстрируют все прелести человека, а также сигареты, их частое курение, распитие спиртных напитков и вроде как маты в английской озвучке. По моему, это очень смелый шаг. Смелый с позиции как самого восприятия фильма, так и не прибыльности, которая могла бы быть, если бы была хорошая рекламная компания. И я удивлен! Вы видели бюджет? Смех, да и только, какие-то несчастные 8 млн. долларов, но тем не менее создателям удалось реализовать их, да и реализовать с лихвой, с умом. Молодцы, что не слили хоть и малый, но бюджет.
бщее
Уникальный идентификатор : 248684564380098971923520433917501174570 (0xBB16E7A9245D1D58828816D0EE24F32A)
Полное имя : F:\Аномализа (2015)\Anomalisa.2015.BDRip.1080p.[pirat.ca].mkv
Формат : Matroska
Версия формата : Version 2
Размер файла : 4,94 Гбайт
Продолжительность : 1 ч. 30 м.
Общий поток : 7802 Кбит/сек
Название фильма : Амонализа.2015
Дата кодирования : UTC 2016-10-17 07:39:30
Программа кодирования : mkvmerge v5.3.0 ('I could have danced') built on Feb 9 2012 10:38:07
Библиотека кодирования : libebml v1.2.3 + libmatroska v1.3.0
Обложка : Yes
Attachments : Cover - Anamalisa.png
Видео
Идентификатор : 1
Формат : AVC
Формат/Информация : Advanced Video Codec
Профиль формата : [email protected]
Параметр CABAC формата : Да
Параметр ReFrames формата : 5 кадров
Идентификатор кодека : V_MPEG4/ISO/AVC
Продолжительность : 1 ч. 30 м.
Битрейт : 5498 Кбит/сек
Ширина : 1920 пикселей
Высота : 800 пикселей
Соотношение сторон : 2,40:1
Режим частоты кадров : Постоянный
Частота кадров : 23,976 (24000/1001) кадра/сек
Цветовое пространство : YUV
Субдискретизация насыщенности : 4:2:0
Битовая глубина : 8 бит
Тип развёртки : Прогрессивная
Бит/(Пиксели*Кадры) : 0.149
Размер потока : 3,48 Гбайт (70%)
Библиотека кодирования : x264 core 146 r2538 121396c
Настройки программы : cabac=1 / ref=5 / deblock=1:-3:-3 / analyse=0x3:0x133 / me=umh / subme=11 / psy=1 / psy_rd=1.00:0.10 / mixed_ref=1 / me_range=48 / chroma_me=1 / trellis=2 / 8x8dct=1 / cqm=0 / deadzone=21,11 / fast_pskip=0 / chroma_qp_offset=-3 / threads=12 / lookahead_threads=2 / sliced_threads=0 / nr=0 / decimate=0 / interlaced=0 / bluray_compat=0 / constrained_intra=0 / bframes=9 / b_pyramid=2 / b_adapt=2 / b_bias=0 / direct=1 / weightb=1 / open_gop=0 / weightp=2 / keyint=240 / keyint_min=23 / scenecut=40 / intra_refresh=0 / rc_lookahead=40 / rc=crf / mbtree=0 / crf=17.0 / qcomp=0.60 / qpmin=0 / qpmax=69 / qpstep=4 / vbv_maxrate=50000 / vbv_bufsize=62500 / crf_max=0.0 / nal_hrd=none / filler=0 / ip_ratio=1.40 / pb_ratio=1.30 / aq=1:1.00
Язык : English
Default : Да
Forced : Нет
Аудио #1
Идентификатор : 2
Формат : AC-3
Формат/Информация : Audio Coding 3
Расширение режима : CM (complete main)
Параметр Endianness формата : Big
Идентификатор кодека : A_AC3
Продолжительность : 1 ч. 30 м.
Вид битрейта : Постоянный
Битрейт : 640 Кбит/сек
Каналы : 6 каналов
Расположение каналов : Front: L C R, Side: L R, LFE
Частота : 48,0 КГц
Частота кадров : 31,250 кадров/сек (1536 spf)
Метод сжатия : С потерями
Размер потока : 415 Мбайт (8%)
Заголовок : Дублированный (Лицензия)
Язык : Russian
Default : Да
Forced : Нет
Аудио #2
Идентификатор : 3
Формат : DTS
Формат/Информация : Digital Theater Systems
Режим : 16
Параметр Endianness формата : Big
Идентификатор кодека : A_DTS
Продолжительность : 1 ч. 30 м.
Вид битрейта : Постоянный
Битрейт : 1509 Кбит/сек
Каналы : 6 каналов
Расположение каналов : Front: L C R, Side: L R, LFE
Частота : 48,0 КГц
Частота кадров : 93,750 кадра/сек (512 spf)
Битовая глубина : 24 бит
Метод сжатия : С потерями
Размер потока : 978 Мбайт (19%)
Язык : English
Default : Нет
Forced : Нет
Текст #1
Идентификатор : 4
Формат : UTF-8
Идентификатор кодека : S_TEXT/UTF8
Идентификатор кодека/Информация : UTF-8 Plain Text
Заголовок : Forced
Язык : Russian
Default : Да
Forced : Нет
Текст #2
Идентификатор : 5
Формат : UTF-8
Идентификатор кодека : S_TEXT/UTF8
Идентификатор кодека/Информация : UTF-8 Plain Text
Заголовок : Full
Язык : Russian
Default : Нет
Forced : Нет
Текст #3
Идентификатор : 6
Формат : UTF-8
Идентификатор кодека : S_TEXT/UTF8
Идентификатор кодека/Информация : UTF-8 Plain Text
Заголовок : Full
Язык : English
Default : Нет
Forced : Нет
Меню
00:00:00.000 : en:Chapter 01
00:05:09.350 : en:Chapter 02
00:12:29.415 : en:Chapter 03
00:18:27.189 : en:Chapter 04
00:18:27.856 : en:Chapter 05
00:25:26.399 : en:Chapter 06
00:31:39.814 : en:Chapter 07
00:37:24.367 : en:Chapter 08
00:43:19.930 : en:Chapter 09
00:52:19.219 : en:Chapter 10
01:01:04.452 : en:Chapter 11
01:07:04.979 : en:Chapter 12
01:14:43.187 : en:Chapter 13
01:19:26.595 : en:Chapter 14
01:23:24.332 : en:Chapter 15
Download / Скачать

Хотите скачать бесплатно? Зарегистрируйтесь на сайте (ссылка на регистрацию). Pirat.ca - самый быстрый торрент трекер в рунете!

Как скачивать  ·   Что такое торрент  ·   Рейтинг и ограничения

Показать сообщения:    
Ответить на тему

Текущее время: Сегодня 02:12

Часовой пояс: GMT + 4



Вы не можете начинать темы
Вы не можете отвечать на сообщения
Вы не можете редактировать свои сообщения
Вы не можете удалять свои сообщения
Вы не можете голосовать в опросах
Вы не можете прикреплять файлы к сообщениям
Вы не можете скачивать файлы

▼ Вниз