ML
     
  Уважаемый Гость!
Вы можете поддержать проект и зарегистрироваться у наших партнеров - онлайн-стратегия MyLands. При регистрации в игре Вы получите код, который сможете активировать после регистрации на pirat.ca и получить 1000 дублонов.

Ваш код:
69f316be79867e9bf99caee9682d20bb11964507
 
     

В поисках Дори / Finding Dory (Эндрю Стэнтон, Энгус МакЛэйн / Andrew Stanton, Angus MacLane) [2016 г., мультфильм, комедия, приключения, семейный, WEB-DLRip] Dub [iTunes]

Ответить на тему
 
Автор
Сообщение

Пост 25-Окт-2016 08:40

[Q] 

aleksey99

--В поисках Дори / Finding Dory--«Вы ее не видели?»-- Производство: США, Pixar Animation Studios, Walt Disney Pictures
Год выпуска: 2016 г.
Жанр: мультфильм, комедия, приключения, семейный
Продолжительность: 01:37:03--Мировая премьера: 8 июня 2016
Российская премьера: 16 июня 2016, «WDSSPR»
Дата выхода DVD: 6 сентября 2016, «Уолт Дисней Компани СНГ»
Дата выхода Blu-Ray: 6 сентября 2016, «Уолт Дисней Компани СНГ»--Перевод: Профессиональный (полное дублирование) [iTunes]--Режиссер: Эндрю Стэнтон, Энгус МакЛэйн / Andrew Stanton, Angus MacLane--В ролях: Эллен ДеДженерес, Альберт Брукс, Эд О’Нил, Кэйтлин Олсон, Хайден Роуленс, Тай Буррелл, Дайан Китон, Юджин Леви, Слоун Мюррэй, Идрис Эльба--Описание: Дори — синяя доброжелательная рыбка-хирург, страдающая провалами в памяти. Она упорно стремится избавиться от своего недуга и найти свою семью.-- --Качество видео: WEB-DLRip / Локализованный русский видеоряд
Контейнер: AVI
Видео кодек: XviD
Аудио кодек: AC3
Видео: 688x384 (1.79:1), 23.976 fps, XviD MPEG-4 ~1760 kbps avg, 0.28 bit/pixel
Аудио: 48 kHz, AC3 Dolby Digital, 3/2 (L,C,R,l,r) + LFE ch, ~384 kbps
Cубтитры: отсутствуют.
Общее
Полное имя : D:\Torrent 2\Finding.Dory.2016.D.WEB-DLRip.avi
Формат : AVI
Формат/Информация : Audio Video Interleave
Размер файла : 1,46 Гбайт
Продолжительность : 1 ч. 37 м.
Общий поток : 2154 Кбит/сек
Программа кодирования : VirtualDubMod 1.5.10.3 (build 2550/release)
Библиотека кодирования : VirtualDubMod build 2550/release
Видео
Идентификатор : 0
Формат : MPEG-4 Visual
Профиль формата : Advanced [email protected]
Параметр BVOP формата : 2
Параметр QPel формата : Нет
Параметр GMC формата : Без точки перехода
Параметр матрицы формата : Выборочная
Идентификатор кодека : XVID
Идентификатор кодека/Подсказка : XviD
Продолжительность : 1 ч. 37 м.
Битрейт : 1761 Кбит/сек
Ширина : 688 пикселей
Высота : 384 пикселя
Соотношение сторон : 16:9
Частота кадров : 23,976 кадра/сек
Цветовое пространство : YUV
Субдискретизация насыщенности : 4:2:0
Битовая глубина : 8 бит
Тип развёртки : Прогрессивная
Метод сжатия : С потерями
Бит/(Пиксели*Кадры) : 0.278
Размер потока : 1,19 Гбайт (82%)
Библиотека кодирования : XviD 73
Аудио
Идентификатор : 1
Формат : AC-3
Формат/Информация : Audio Coding 3
Расширение режима : CM (complete main)
Параметр Endianness формата : Big
Идентификатор кодека : 2000
Продолжительность : 1 ч. 37 м.
Вид битрейта : Постоянный
Битрейт : 384 Кбит/сек
Каналы : 6 каналов
Расположение каналов : Front: L C R, Side: L R, LFE
Частота : 48,0 КГц
Метод сжатия : С потерями
Размер потока : 267 Мбайт (18%)
Выравнивание : Разделение по промежуткам
Продолжительность промежутка : 42 мс. (1,00 видеокадр)
Время предзагрузки промежутка : 500 мс.
Трейлер
Download / Скачать

Хотите скачать бесплатно? Зарегистрируйтесь на сайте (ссылка на регистрацию). Pirat.ca - самый быстрый торрент трекер в рунете!

Как скачивать  ·   Что такое торрент  ·   Рейтинг и ограничения



Последний раз редактировалось: aleksey99 (2016-10-27 08:58), всего редактировалось 1 раз

ss80

Флибустьер

36

Пост 25-Окт-2016 20:52 (спустя 12 часов)

[Q] 

Спасибо!!! Раздающему респект!
[Профиль]  [ЛС] 

Пост 30-Ноя-2016 10:25 (спустя 1 месяц 4 дня)

Топик был перенесен из форума Новинки (HD|DVD|BD| TV|SAT|PDTV| - Rips) в форум Зарубежные полнометражные мультфильмы
aleksey99
 
Показать сообщения:    
Ответить на тему

Текущее время: Сегодня 14:32

Часовой пояс: GMT + 4



Вы не можете начинать темы
Вы не можете отвечать на сообщения
Вы не можете редактировать свои сообщения
Вы не можете удалять свои сообщения
Вы не можете голосовать в опросах
Вы не можете прикреплять файлы к сообщениям
Вы не можете скачивать файлы

▼ Вниз