ML
     
  Уважаемый Гость!
Вы можете поддержать проект и зарегистрироваться у наших партнеров - онлайн-стратегия MyLands. При регистрации в игре Вы получите код, который сможете активировать после регистрации на pirat.ca и получить 1000 дублонов.

Ваш код:
062e2babcc491faeb40d496cf9a498ac3df6cdd0
 
     

Зверополис / Zootopia Байрон Ховард / Byron Howard, Рич Мур / Rich Moore, Джаред Буш / Jared Bush) [2016 г., Мультфильм, полнометражный, детский, семейный, комедия, приключения, BDRip-AVC] Dub + MVO + AVO + Original (Eng) + Sub (Rus/Eng/Ukr)

Ответить на тему
 
Автор
Сообщение

Пост 26-Окт-2016 09:25

[Q] 

kroxaBOOM

Легенда

Зверополис / Zootopia
Информация о фильме
Год выпуска: 2016
Жанр: Мультфильм, полнометражный, детский, семейный, комедия, приключения
Режиссер: Байрон Ховард / Byron Howard, Рич Мур / Rich Moore, Джаред Буш / Jared Bush
В ролях: Джиннифер Гудвин, Джейсон Бейтмен, Идрис Эльба, Дженни Слейт, Нейт Торренс, Бонни Хант, Дон Лейк, Томми Чонг, Дж.К. Симмонс, Октавия Спенсер, Алан Тьюдик, Шакира, Рэймонд С. Перси, Делла Саба, Морис ЛаМарш, Фуския, Джон Ди Маджио, Кэти Лоус, Джесси Корти, Том ’Тайни’ Листер мл.
О фильме: Зверополис - городской комплекс, представляющий собой умилительное единение всех звеньев пищевой цепочки, которые живут в обособленных районах, полностью соответствующим основным климатическим зонам. Тут вам и элитный участок пустыни с богатыми месторождениями нефти и газа, и заснеженный Тундратаун с засевшим внутри мафиозным кланом под охраной белых медведей, и дождевые леса с повсеместными зарослями, и центральная застройка с деловыми кварталами. Но не все спокойно в зверином королевстве. Один за другим начинают пропадать представители разных видов хищников. И там, где не справляются большие и сильные полицейские со стальными мускулами и натруженным мозжечком, в дело вступает маленькая и пушистая крольчиха Джуди Хопс, первый офицер полиции из кроликов. Взяв в оборот хитрого лиса-комбинатора Ника Уайлда, она преисполнена решимости отыскать пропавших животных. Но невольные напарники даже не представляют, что их ждет...

Страна: США
Студия: Walt Disney Animation Studios
Продолжительность: 01:48:44
Перевод: Дублированный, профессиональный многоголосый, авторский одноголосый
Файл
Кодек: MPEG-4 AVC
Качество: BDRip-AVC
Видео: 1024x428, 1400 kbps, 23.976 fps
Аудио #1: Русский (AC3, 6 ch, 448 Кбит/с) / Дублированный
Аудио #2: Русский (AC3, 6 ch, 448 Кбит/с) / Профессиональный многоголосый (Focus Studio)
Аудио #3: Русский (AC3, 6 ch, 448 Кбит/с) / Авторский (Юрий Сербин)
Аудио #4: Русский (AC3, 6 ch, 448 Кбит/с) / Авторский (Вячеслав Котов)
Аудио #5: Украинский (AC3, 6 ch, 448 Кбит/с)
Аудио #6: Английский (AC3, 6 ch, 448 Кбит/с)
Субтитры: Русские, английские, украинские
ее
Уникальный идентификатор : 204657528418352598757255924630674263715 (0x99F79B320DE9925EBA98AA4AB110CEA3)
Полное имя : G:\Раздачи\Zootopia.2016.x264.BDRip.(AVC)-MediaClub.mkv
Формат : Matroska
Версия формата : Version 1
Размер файла : 3,11 Гбайт
Продолжительность : 1 ч. 48 м.
Общий поток : 4091 Кбит/сек
Дата кодирования : UTC 2016-10-25 20:32:14
Программа кодирования : mkvmerge v2.1.0 ('Another Place To Fall') built on Aug 19 2007 13:40:07
Библиотека кодирования : libebml v0.7.7 + libmatroska v0.8.1
Обложка : Yes
Attachments : Cover✓Зверополис - Zootopia|Blu-Rayᴴᴰ BOX
Видео
Идентификатор : 1
Формат : AVC
Формат/Информация : Advanced Video Codec
Профиль формата : [email protected]
Параметр CABAC формата : Да
Параметр ReFrames формата : 10 кадров
Идентификатор кодека : V_MPEG4/ISO/AVC
Продолжительность : 1 ч. 48 м.
Битрейт : 1321 Кбит/сек
Номинальный битрейт : 1400 Кбит/сек
Ширина : 1024 пикселя
Высота : 428 пикселей
Соотношение сторон : 2,40:1
Режим частоты кадров : Постоянный
Частота кадров : 23,976 (24000/1001) кадра/сек
Цветовое пространство : YUV
Субдискретизация насыщенности : 4:2:0
Битовая глубина : 8 бит
Тип развёртки : Прогрессивная
Бит/(Пиксели*Кадры) : 0.126
Размер потока : 1,00 Гбайт (32%)
Библиотека кодирования : x264 core 146 r2538 121396c
Настройки программы : cabac=1 / ref=10 / deblock=1:-2:-2 / analyse=0x3:0x113 / me=umh / subme=11 / psy=1 / psy_rd=1.00:0.01 / mixed_ref=1 / me_range=32 / chroma_me=1 / trellis=2 / 8x8dct=1 / cqm=0 / deadzone=21,11 / fast_pskip=0 / chroma_qp_offset=-3 / threads=6 / lookahead_threads=1 / sliced_threads=0 / nr=0 / decimate=0 / interlaced=0 / bluray_compat=0 / constrained_intra=0 / bframes=8 / b_pyramid=2 / b_adapt=2 / b_bias=0 / direct=3 / weightb=1 / open_gop=0 / weightp=2 / keyint=240 / keyint_min=23 / scenecut=40 / intra_refresh=0 / rc_lookahead=40 / rc=2pass / mbtree=1 / bitrate=1400 / ratetol=1.0 / qcomp=0.60 / qpmin=0 / qpmax=69 / qpstep=4 / cplxblur=20.0 / qblur=0.5 / vbv_maxrate=50000 / vbv_bufsize=62500 / nal_hrd=none / filler=0 / ip_ratio=1.40 / aq=1:0.80
Язык : English
Default : Да
Forced : Нет
Аудио #1
Идентификатор : 2
Формат : AC-3
Формат/Информация : Audio Coding 3
Расширение режима : CM (complete main)
Параметр Endianness формата : Big
Идентификатор кодека : A_AC3
Продолжительность : 1 ч. 48 м.
Вид битрейта : Постоянный
Битрейт : 448 Кбит/сек
Каналы : 6 каналов
Расположение каналов : Front: L C R, Side: L R, LFE
Частота : 48,0 КГц
Частота кадров : 31,250 кадров/сек (1536 spf)
Метод сжатия : С потерями
Размер потока : 348 Мбайт (11%)
Заголовок : Dub
Язык : Russian
Default : Да
Forced : Нет
Аудио #2
Идентификатор : 3
Формат : AC-3
Формат/Информация : Audio Coding 3
Расширение режима : CM (complete main)
Параметр Endianness формата : Big
Идентификатор кодека : A_AC3
Продолжительность : 1 ч. 48 м.
Вид битрейта : Постоянный
Битрейт : 448 Кбит/сек
Каналы : 6 каналов
Расположение каналов : Front: L C R, Side: L R, LFE
Частота : 48,0 КГц
Частота кадров : 31,250 кадров/сек (1536 spf)
Метод сжатия : С потерями
Размер потока : 348 Мбайт (11%)
Заголовок : FocusStudio
Язык : Russian
Default : Нет
Forced : Нет
Statistics Tags Issue : mkvmerge v8.9.0 ('Father Daughter') 64bit 2016-09-18 06:45:46 / mkvmerge v2.1.0 ('Another Place To Fall') built on Aug 19 2007 13:40:07 2016-10-25 20:32:14
FromStats_BitRate : 448000
FromStats_Duration : 01:48:32.640000000
FromStats_FrameCount : 203520
FromStats_StreamSize : 364707840
Аудио #3
Идентификатор : 4
Формат : AC-3
Формат/Информация : Audio Coding 3
Расширение режима : CM (complete main)
Параметр Endianness формата : Big
Идентификатор кодека : A_AC3
Продолжительность : 1 ч. 48 м.
Вид битрейта : Постоянный
Битрейт : 448 Кбит/сек
Каналы : 6 каналов
Расположение каналов : Front: L C R, Side: L R, LFE
Частота : 48,0 КГц
Частота кадров : 31,250 кадров/сек (1536 spf)
Метод сжатия : С потерями
Размер потока : 348 Мбайт (11%)
Заголовок : В.Котов
Язык : Russian
Default : Нет
Forced : Нет
Statistics Tags Issue : mkvmerge v8.3.0 ('Over the Horizon') 64bit 2016-10-24 11:42:55 / mkvmerge v2.1.0 ('Another Place To Fall') built on Aug 19 2007 13:40:07 2016-10-25 20:32:14
FromStats_BitRate : 448000
FromStats_Duration : 01:48:32.448000000
FromStats_FrameCount : 203514
FromStats_StreamSize : 364697088
Аудио #4
Идентификатор : 5
Формат : AC-3
Формат/Информация : Audio Coding 3
Расширение режима : CM (complete main)
Параметр Endianness формата : Big
Идентификатор кодека : A_AC3
Продолжительность : 1 ч. 48 м.
Вид битрейта : Постоянный
Битрейт : 448 Кбит/сек
Каналы : 6 каналов
Расположение каналов : Front: L C R, Side: L R, LFE
Частота : 48,0 КГц
Частота кадров : 31,250 кадров/сек (1536 spf)
Метод сжатия : С потерями
Размер потока : 348 Мбайт (11%)
Заголовок : Ю.Сербин
Язык : Russian
Default : Нет
Forced : Нет
Аудио #5
Идентификатор : 6
Формат : AC-3
Формат/Информация : Audio Coding 3
Расширение режима : CM (complete main)
Параметр Endianness формата : Big
Идентификатор кодека : A_AC3
Продолжительность : 1 ч. 48 м.
Вид битрейта : Постоянный
Битрейт : 448 Кбит/сек
Каналы : 6 каналов
Расположение каналов : Front: L C R, Side: L R, LFE
Частота : 48,0 КГц
Частота кадров : 31,250 кадров/сек (1536 spf)
Метод сжатия : С потерями
Размер потока : 348 Мбайт (11%)
Заголовок : BD CEE
Язык : Ukrainian
Default : Нет
Forced : Нет
Аудио #6
Идентификатор : 7
Формат : AC-3
Формат/Информация : Audio Coding 3
Расширение режима : CM (complete main)
Параметр Endianness формата : Big
Идентификатор кодека : A_AC3
Продолжительность : 1 ч. 48 м.
Вид битрейта : Постоянный
Битрейт : 448 Кбит/сек
Каналы : 6 каналов
Расположение каналов : Front: L C R, Side: L R, LFE
Частота : 48,0 КГц
Частота кадров : 31,250 кадров/сек (1536 spf)
Метод сжатия : С потерями
Размер потока : 348 Мбайт (11%)
Заголовок : BD CEE
Язык : English
Default : Нет
Forced : Нет
Statistics Tags Issue : mkvmerge v8.3.0 ('Over the Horizon') 64bit 2016-10-24 11:42:55 / mkvmerge v2.1.0 ('Another Place To Fall') built on Aug 19 2007 13:40:07 2016-10-25 20:32:14
FromStats_BitRate : 448000
FromStats_Duration : 01:48:32.448000000
FromStats_FrameCount : 203514
FromStats_StreamSize : 364697088
Текст #1
Идентификатор : 8
Формат : UTF-8
Идентификатор кодека : S_TEXT/UTF8
Идентификатор кодека/Информация : UTF-8 Plain Text
Заголовок : BD CEE
Язык : Russian
Default : Нет
Forced : Нет
Текст #2
Идентификатор : 9
Формат : UTF-8
Идентификатор кодека : S_TEXT/UTF8
Идентификатор кодека/Информация : UTF-8 Plain Text
Заголовок : FocusStudio
Язык : Russian
Default : Нет
Forced : Нет
Statistics Tags Issue : mkvmerge v8.9.0 ('Father Daughter') 64bit 2016-09-18 06:45:46 / mkvmerge v2.1.0 ('Another Place To Fall') built on Aug 19 2007 13:40:07 2016-10-25 20:32:14
FromStats_BitRate : 123
FromStats_Duration : 01:39:12.301000000
FromStats_FrameCount : 1426
FromStats_StreamSize : 91775
Текст #3
Идентификатор : 10
Формат : UTF-8
Идентификатор кодека : S_TEXT/UTF8
Идентификатор кодека/Информация : UTF-8 Plain Text
Заголовок : Gedet
Язык : Ukrainian
Default : Нет
Forced : Нет
Statistics Tags Issue : mkvmerge v7.9.0 ('Birds') 64bit 2016-10-03 20:48:52 / mkvmerge v2.1.0 ('Another Place To Fall') built on Aug 19 2007 13:40:07 2016-10-25 20:32:14
FromStats_BitRate : 120
FromStats_Duration : 01:35:20.960000000
FromStats_FrameCount : 1373
FromStats_StreamSize : 85961
Текст #4
Идентификатор : 11
Формат : UTF-8
Идентификатор кодека : S_TEXT/UTF8
Идентификатор кодека/Информация : UTF-8 Plain Text
Заголовок : Full
Язык : English
Default : Нет
Forced : Нет
Statistics Tags Issue : mkvmerge v8.9.0 ('Father Daughter') 64bit 2016-09-18 06:45:46 / mkvmerge v2.1.0 ('Another Place To Fall') built on Aug 19 2007 13:40:07 2016-10-25 20:32:14
FromStats_BitRate : 74
FromStats_Duration : 01:38:57.996000000
FromStats_FrameCount : 1700
FromStats_StreamSize : 54940
Текст #5
Идентификатор : 12
Формат : UTF-8
Идентификатор кодека : S_TEXT/UTF8
Идентификатор кодека/Информация : UTF-8 Plain Text
Заголовок : Full SDH
Язык : English
Default : Нет
Forced : Нет
Statistics Tags Issue : mkvmerge v8.9.0 ('Father Daughter') 64bit 2016-09-18 06:45:46 / mkvmerge v2.1.0 ('Another Place To Fall') built on Aug 19 2007 13:40:07 2016-10-25 20:32:14
FromStats_BitRate : 82
FromStats_Duration : 01:45:45.194000000
FromStats_FrameCount : 2295
FromStats_StreamSize : 65804
Меню #1
00:00:00.000 : en:
00:00:59.558 : en:
00:05:50.098 : en:
00:10:05.562 : en:
00:14:31.537 : en:
00:18:24.019 : en:
00:26:03.353 : en:
00:30:57.438 : en:
00:37:07.099 : en:
00:40:43.439 : en:
00:44:31.751 : en:
00:51:40.429 : en:
00:55:40.377 : en:
01:00:48.268 : en:
01:03:37.854 : en:
01:09:19.822 : en:
01:13:39.162 : en:
01:17:07.372 : en:
01:21:52.363 : en:
01:28:19.167 : en:
01:32:43.430 : en:
01:36:12.140 : en:
01:48:44.184 : en:
Меню #2
00:00:00.000 : en:Prologue
00:00:59.559 : en:Gideon Grey
00:05:50.099 : en:The Police Academy
00:10:05.563 : en:Welcome to Zootopia
00:14:31.537 : en:Meter Maid Duty
00:18:24.019 : en:Pawpsicles
00:26:03.353 : en:The Weasel Chase
00:30:57.438 : en:It's Called A Hustle
00:37:07.099 : en:The Naturalist Club
00:40:43.441 : en:Department Of 10
00:44:31.752 : en:Mr. Big
00:51:40.430 : en:Manchas Goes Savage
00:55:40.378 : en:The Gondola
01:00:48.269 : en:Help from Bellwether
01:03:37.855 : en:Cliffside Asylum
01:09:19.822 : en:We Cracked the Case
01:13:39.164 : en:Hopps Gives Up
01:17:07.372 : en:Hopps' Apology
01:21:52.365 : en:Doug's Laboratory
01:28:19.168 : en:The Natural History Museum
01:32:43.432 : en:Epilogue
01:36:12.141 : en:End Credits
Меню #3
00:00:00.000 : en:Prologue
00:00:59.559 : en:Gideon Grey
00:05:50.099 : en:The Police Academy
00:10:05.563 : en:Welcome to Zootopia
00:14:31.537 : en:Meter Maid Duty
00:18:24.019 : en:Pawpsicles
00:26:03.353 : en:The Weasel Chase
00:30:57.438 : en:It's Called A Hustle
00:37:07.099 : en:The Naturalist Club
00:40:43.441 : en:Department Of 10
00:44:31.752 : en:Mr. Big
00:51:40.430 : en:Manchas Goes Savage
00:55:40.378 : en:The Gondola
01:00:48.269 : en:Help from Bellwether
01:03:37.855 : en:Cliffside Asylum
01:09:19.822 : en:We Cracked the Case
01:13:39.164 : en:Hopps Gives Up
01:17:07.372 : en:Hopps' Apology
01:21:52.365 : en:Doug's Laboratory
01:28:19.168 : en:The Natural History Museum
01:32:43.432 : en:Epilogue
01:36:12.141 : en:End Credits
Меню #4
00:00:00.000 : en:01. Prologue
00:00:59.559 : en:02. Gideon Grey
00:05:50.100 : en:03. The Police Academy
00:10:05.563 : en:04. Welcome to Zootopia
00:14:31.537 : en:05. Meter Maid Duty
00:18:24.019 : en:06. Pawpsicles
00:26:03.353 : en:07. The Weasel Chase
00:30:57.439 : en:08. It's Called A Hustle
00:37:07.100 : en:09. The Naturalist Club
00:40:43.441 : en:10. Department Of 10
00:44:31.752 : en:11. Mr. Big
00:51:40.430 : en:12. Manchas Goes Savage
00:55:40.378 : en:13. The Gondola
01:00:48.269 : en:14. Help from Bellwether
01:03:37.855 : en:15. Cliffside Asylum
01:09:19.822 : en:16. We Cracked the Case
01:13:39.165 : en:17. Hopps Gives Up
01:17:07.372 : en:18. Hopps' Apology
01:21:52.366 : en:19. Doug's Laboratory
01:28:19.169 : en:20. The Natural History Museum
01:32:43.433 : en:21. Epilogue
01:36:12.141 : en:22. End Credits
-
Download / Скачать

Хотите скачать бесплатно? Зарегистрируйтесь на сайте (ссылка на регистрацию). Pirat.ca - самый быстрый торрент трекер в рунете!

Как скачивать  ·   Что такое торрент  ·   Рейтинг и ограничения

nitro1985

Корсар

Пост 26-Ноя-2016 21:47 (спустя 1 месяц)

[Q] 

Отличный мульт! Всем качать!!! Супер!
[Профиль]  [ЛС] 
Показать сообщения:    
Ответить на тему

Текущее время: Сегодня 17:42

Часовой пояс: GMT + 4



Вы не можете начинать темы
Вы не можете отвечать на сообщения
Вы не можете редактировать свои сообщения
Вы не можете удалять свои сообщения
Вы не можете голосовать в опросах
Вы не можете прикреплять файлы к сообщениям
Вы не можете скачивать файлы

▼ Вниз