ML
     
  Уважаемый Гость!
Вы можете поддержать проект и зарегистрироваться у наших партнеров - онлайн-стратегия MyLands. При регистрации в игре Вы получите код, который сможете активировать после регистрации на pirat.ca и получить 1000 дублонов.

Ваш код:
dbd0d701284cde74a1f34d06ce20b7bc75a73e75
 
     

Гамба в 3D / Gamba: Ganba to nakamatachi (Томохиро Кавамура, Йосихиро Комори / Tomohiro Kawamura, Yoshihiro Komori) [2016 г., мультфильм, WEB-DLRip] Dub [Чистый звук]

Ответить на тему
 
Автор
Сообщение

Пост 26-Окт-2016 15:01

[Q] 

aleksey99

--Гамба в 3D / Gamba: Ganba to nakamatachi-- Производство: Япония, Arad Productions, Shirogumi, Toei Animation Company
Год выпуска: 2016 г.
Жанр: мультфильм
Продолжительность: 01:29:58--Мировая премьера: 10 октября 2015
Российская премьера: 8 сентября 2016, «Cinema Prestige»--Перевод: Профессиональный (полное дублирование) [Чистый звук]--Режиссер: Томохиро Кавамура, Йосихиро Комори / Tomohiro Kawamura, Yoshihiro Komori--В ролях: Кэйдзи Фудзивара, Сюити Икэда, Юки Кадзи, Саяка, Мансай Номура, Масако Нодзава, Ватару Такаги, Ясухиро Такато, Акико Ядзима, Акио Ютсука--Описание: Смелому и задиристому мышонку Гамбе мало побед на полных опасностей ночных улицах. Вместе с друзьями он отправляется на небольшой остров в океане, чтобы спасти мышиную деревню, которую терроризирует банда хорьков во главе со злобным Скалозубом. Сражения на земле, под водой и в воздухе, смертельная опасность и — любовь красавицы Мышуньки — награда за подвиги.-- --Качество видео: WEB-DLRip
Контейнер: AVI
Видео кодек: XviD
Аудио кодек: AC3
Видео: 720x304 (2.37:1), 25 fps, XviD build 50 ~1786 kbps avg, 0.33 bit/pixel
Аудио: 48 kHz, AC3 Dolby Digital, 2/0 (L,R) ch, ~384 kbps
Cубтитры: отсутствуют.
Общее
Полное имя : H:\Torrent2\Gamba.3D.2015.D.WEB-DLRip.avi
Формат : AVI
Формат/Информация : Audio Video Interleave
Размер файла : 1,37 Гбайт
Продолжительность : 1 ч. 29 м.
Общий поток : 2180 Кбит/сек
Программа кодирования : V
Видео
Идентификатор : 0
Формат : MPEG-4 Visual
Профиль формата : Advanced [email protected]
Параметр BVOP формата : 2
Параметр QPel формата : Нет
Параметр GMC формата : Без точки перехода
Параметр матрицы формата : Выборочная
Идентификатор кодека : XVID
Идентификатор кодека/Подсказка : XviD
Продолжительность : 1 ч. 29 м.
Битрейт : 1786 Кбит/сек
Ширина : 720 пикселей
Высота : 304 пикселя
Соотношение сторон : 2,35:1
Частота кадров : 25,000 кадров/сек
Цветовое пространство : YUV
Субдискретизация насыщенности : 4:2:0
Битовая глубина : 8 бит
Тип развёртки : Прогрессивная
Метод сжатия : С потерями
Бит/(Пиксели*Кадры) : 0.326
Размер потока : 1,12 Гбайт (82%)
Библиотека кодирования : XviD 1.2.1 (UTC 2008-12-04)
Аудио
Идентификатор : 1
Формат : AC-3
Формат/Информация : Audio Coding 3
Расширение режима : CM (complete main)
Параметр Endianness формата : Big
Идентификатор кодека : 2000
Продолжительность : 1 ч. 29 м.
Вид битрейта : Постоянный
Битрейт : 384 Кбит/сек
Каналы : 2 канала
Расположение каналов : Front: L R
Частота : 48,0 КГц
Частота кадров : 31,250 кадров/сек (1536 spf)
Метод сжатия : С потерями
Размер потока : 247 Мбайт (18%)
Выравнивание : Разделение по промежуткам
Продолжительность промежутка : 40 мс. (1,00 видеокадр)
Время предзагрузки промежутка : 500 мс.
Трейлер
Download / Скачать

Хотите скачать бесплатно? Зарегистрируйтесь на сайте (ссылка на регистрацию). Pirat.ca - самый быстрый торрент трекер в рунете!

Как скачивать  ·   Что такое торрент  ·   Рейтинг и ограничения

bolin

Флибустьер

Пост 27-Окт-2016 00:42 (спустя 9 часов)

[Q] 

Спасибо за раздачу!
[Профиль]  [ЛС] 

Пост 30-Ноя-2016 10:25 (спустя 1 месяц 3 дня)

Топик был перенесен из форума Новинки (HD|DVD|BD| TV|SAT|PDTV| - Rips) в форум Зарубежные полнометражные мультфильмы
aleksey99
 
Показать сообщения:    
Ответить на тему

Текущее время: Сегодня 18:29

Часовой пояс: GMT + 4



Вы не можете начинать темы
Вы не можете отвечать на сообщения
Вы не можете редактировать свои сообщения
Вы не можете удалять свои сообщения
Вы не можете голосовать в опросах
Вы не можете прикреплять файлы к сообщениям
Вы не можете скачивать файлы

▼ Вниз