ML
     
  Уважаемый Гость!
Вы можете поддержать проект и зарегистрироваться у наших партнеров - онлайн-стратегия MyLands. При регистрации в игре Вы получите код, который сможете активировать после регистрации на pirat.ca и получить 1000 дублонов.

Ваш код:
156f85568ae63e45e07ac461c96a83ba1a876b0a
 
     

Последний единорог / The Last Unicorn (Жюль Басс, Артур Ранкин мл. / Jules Bass, Arthur Rankin Jr.) [1982 г., мультфильм, фэнтези, семейный, 0+, BDRip-AVC] Dub + Original (Eng) + Sub (Rus, Eng)

Ответить на тему
 
Автор
Сообщение

Пост 02-Ноя-2016 03:50

[Q] 

somik

Легенда

-Последний единорог / The Last Unicorn-- Производство: США, Япония, Великобритания, Германия (ФРГ), Incorporated Television Company (ITC), Rankin/Bass Productions, Topcraft
Режиссер: Жюль Басс, Артур Ранкин мл. / Jules Bass, Arthur Rankin Jr.
Жанр: мультфильм, фэнтези, семейный, 0+
Год выпуска: 1982 г.
Продолжительность: 01:33:03
Мировая премьера: 19 ноября 1982
Перевод: Профессиональный (полное дублирование)
Оригинальный аудиопоток: английский
Роли озвучивали: Алан Аркин, Джеф Бриджес, Миа Ферроу Темми Гримс, Роберт Клейн, Анжела Ленсбери, Кристофер Ли-Описание: В далекой волшебной стране в сиреневой роще жил юный прекрасный единорог, знающий секреты магии. Однажды он узнал, что все его сородичи исчезли с лица земли, и он может стать последним единорогом на свете.
И тогда единорог покинул свою рощу и отправился в долгое и опасное путешествие, чтобы разыскать и спасти своих сородичей. Много приключении пришлось ему пережить и многих опасных врагов довелось повстречать-свиноподобную ведьму Матушку Фортуну, шайку разбойников капитана Калли, злобного и жадного короля Хэггарда.
Но с помощью верных друзей — волшебника-недоучки Шмендрика, девушки Молли и прекрасного принца Лира -единорогу удалось одолеть огромного и страшного Красного Быка и освободить своих собратьев-единорогов.-Сэмпл IMDB КиноПоиск
Качество видео: BDRip-AVC
Контейнер: MKV
Видео кодек: MPEG4 AVC
Аудио кодек: AC3
Видео: 3300 Кбит/с, 1024x552, 23.976 кадр/с
Аудио: AC3, 2 ch, 192 Кбит/с, 48,0 КГц
Аудио #2: AC3, 6 ch, 448 Кбит/с, 48,0 КГц
Cубтитры: Русские, английские
Формат субтитров: softsub (SSA/ASS)
Доп. информация о субтитрах: включаемые
Через некоторое время после выхода мультфильма, студия Topcraft (ответственная за анимацию «Последнего единорога») была нанята начинающим тогда режиссёром Хаяо Миядзаки для съемок фильма «Навсикая из долины ветров» (1984). Позже, в 1985, основными членами Topcraft и Миядзаки была основана Студия Ghibli.
Все песни к фильму были написаны группой America, создавшей целый альбом с одноименным названием The Last Unicorn.
Сатурн, 1983 год
Номинации (1):
Лучший анимационный фильм
Чудесно. Прекрасно. Удивительно.
Именно эти слова и многие другие их синонимы приходят мне на ум каждый раз, когда я слышу словосочетание «Последний Единорог». Но почему же? Давайте-ка разберемся:
Но сначала немного об истории:
Впервые я увидела этот мультфильм, когда мне было около восьми или девяти лет. Так как я очень люблю лошадей, я тогда решила не откладывать просмотр и сразу же начала смотреть…
Скажу сразу, мультфильм мне сначала не очень понравился, т. к. я не любила мультфильмы о любви. К тому же, перевод у него был любительский. Да и пересматривала я его не часто. И бедный диск пылился у меня где-то на дальней полке, пока я однажды не решила устроить там уборку. Решилась его посмотреть и.. . я поняла, что это самый лучший мультфильм в истории человечества, лучше «Короля Льва» и всего-всего другого. Очень и очень немногие мультфильмы могут с ним конкурировать. И еще меньше среди конкурирующих мультфильмов в 3D формате. Итак, начнем:
Сюжет: Где-то в Лесу, среди тенистых деревьев живет удивительнейшее существо. Оно помогает Лесу и это существо — Единорог. Однажды она узнает, что она осталась последней, и решает отправиться в далекое путешествие, чтобы помочь своим сородичам. По дороге она встретит множество опасностей, найдет друзей и даже любовь. Невозможно представить себе, сколько людей трудилось над этим действительно шедевром, однако их труды стоят того.
Музыка: Это просто великолепно! Я скачала себе весь альбом! А эти песни (The last Unicorn и Man`s Road) теперь мои любимые.
Итог: Это лучший мультфильм! Лучший во всем! У меня уже нет слов для описания этого мультфильма в еще более лучших красках! Обязательно посмотрите! Но помните, что мультфильм немного философский и возможно, что детям он может понравиться не так, как взрослым!
10 из 10
Общее
Уникальный идентификатор : 249159731609453786947027496059567034382 (0xBB726B36C0BFF49CB45762AB8A63500E)
Полное имя : F:\Последний единорог (1982)\Poslednij Edinorog.1982.BDRip-AVC.[pirat.ca].mkv
Формат : Matroska
Версия формата : Version 2
Размер файла : 2,56 Гбайт
Продолжительность : 1 ч. 33 м.
Общий поток : 3942 Кбит/сек
Дата кодирования : UTC 2016-11-01 23:29:00
Программа кодирования : mkvmerge v5.3.0 ('I could have danced') built on Feb 9 2012 10:38:07
Библиотека кодирования : libebml v1.2.3 + libmatroska v1.3.0
Видео
Идентификатор : 1
Формат : AVC
Формат/Информация : Advanced Video Codec
Профиль формата : [email protected]
Параметр CABAC формата : Да
Параметр ReFrames формата : 10 кадров
Идентификатор кодека : V_MPEG4/ISO/AVC
Продолжительность : 1 ч. 33 м.
Битрейт : 3300 Кбит/сек
Ширина : 1024 пикселя
Высота : 552 пикселя
Соотношение сторон : 1,85:1
Режим частоты кадров : Постоянный
Частота кадров : 23,976 (24000/1001) кадра/сек
Цветовое пространство : YUV
Субдискретизация насыщенности : 4:2:0
Битовая глубина : 8 бит
Тип развёртки : Прогрессивная
Бит/(Пиксели*Кадры) : 0.243
Размер потока : 2,10 Гбайт (82%)
Библиотека кодирования : x264 core 144 r2525 40bb568
Настройки программы : cabac=1 / ref=10 / deblock=1:-3:-2 / analyse=0x3:0x133 / me=umh / subme=11 / psy=1 / psy_rd=1.00:0.05 / mixed_ref=1 / me_range=32 / chroma_me=1 / trellis=2 / 8x8dct=1 / cqm=0 / deadzone=21,11 / fast_pskip=0 / chroma_qp_offset=-3 / threads=6 / lookahead_threads=1 / sliced_threads=0 / nr=0 / decimate=0 / interlaced=0 / bluray_compat=0 / constrained_intra=0 / bframes=8 / b_pyramid=2 / b_adapt=2 / b_bias=0 / direct=3 / weightb=1 / open_gop=0 / weightp=2 / keyint=240 / keyint_min=23 / scenecut=40 / intra_refresh=0 / rc=2pass / mbtree=0 / bitrate=3300 / ratetol=1.0 / qcomp=0.60 / qpmin=0 / qpmax=69 / qpstep=4 / cplxblur=20.0 / qblur=0.5 / ip_ratio=1.40 / pb_ratio=1.30 / aq=3:0.70
Язык : English
Default : Да
Forced : Нет
Statistics Tags Issue : mkvmerge v7.7.0 ('Six Voices') 32bit built on Feb 28 2015 23:23:00 2015-04-11 23:07:58 / mkvmerge v5.3.0 ('I could have danced') built on Feb 9 2012 10:38:07 2016-11-01 23:29:00
FromStats_BitRate : 3300697
FromStats_Duration : 01:33:03.620000000
FromStats_FrameCount : 133873
FromStats_StreamSize : 2303729975
Аудио #1
Идентификатор : 2
Формат : AC-3
Формат/Информация : Audio Coding 3
Расширение режима : CM (complete main)
Параметр Endianness формата : Big
Идентификатор кодека : A_AC3
Продолжительность : 1 ч. 33 м.
Вид битрейта : Постоянный
Битрейт : 192 Кбит/сек
Каналы : 2 канала
Расположение каналов : Front: L R
Частота : 48,0 КГц
Частота кадров : 31,250 кадров/сек (1536 spf)
Метод сжатия : С потерями
Размер потока : 128 Мбайт (5%)
Заголовок : Дубляж
Язык : Russian
Default : Да
Forced : Нет
Statistics Tags Issue : mkvmerge v7.7.0 ('Six Voices') 32bit built on Feb 28 2015 23:23:00 2015-04-11 23:07:58 / mkvmerge v5.3.0 ('I could have danced') built on Feb 9 2012 10:38:07 2016-11-01 23:29:00
FromStats_BitRate : 192000
FromStats_Duration : 01:32:46.592000000
FromStats_FrameCount : 173956
FromStats_StreamSize : 133598208
Аудио #2
Идентификатор : 3
Формат : AC-3
Формат/Информация : Audio Coding 3
Расширение режима : CM (complete main)
Параметр Endianness формата : Big
Идентификатор кодека : A_AC3
Продолжительность : 1 ч. 33 м.
Вид битрейта : Постоянный
Битрейт : 448 Кбит/сек
Каналы : 6 каналов
Расположение каналов : Front: L C R, Side: L R, LFE
Частота : 48,0 КГц
Частота кадров : 31,250 кадров/сек (1536 spf)
Метод сжатия : С потерями
Размер потока : 298 Мбайт (11%)
Язык : English
Default : Нет
Forced : Нет
Statistics Tags Issue : mkvmerge v7.7.0 ('Six Voices') 32bit built on Feb 28 2015 23:23:00 2015-04-11 23:07:58 / mkvmerge v5.3.0 ('I could have danced') built on Feb 9 2012 10:38:07 2016-11-01 23:29:00
FromStats_BitRate : 448000
FromStats_Duration : 01:33:03.616000000
FromStats_FrameCount : 174488
FromStats_StreamSize : 312682496
Текст #1
Идентификатор : 4
Формат : UTF-8
Идентификатор кодека : S_TEXT/UTF8
Идентификатор кодека/Информация : UTF-8 Plain Text
Язык : Russian
Default : Нет
Forced : Нет
Statistics Tags Issue : mkvmerge v7.7.0 ('Six Voices') 32bit built on Feb 28 2015 23:23:00 2015-04-11 23:07:58 / mkvmerge v5.3.0 ('I could have danced') built on Feb 9 2012 10:38:07 2016-11-01 23:29:00
FromStats_BitRate : 99
FromStats_Duration : 01:30:52.911000000
FromStats_FrameCount : 1041
FromStats_StreamSize : 67558
Текст #2
Идентификатор : 5
Формат : UTF-8
Идентификатор кодека : S_TEXT/UTF8
Идентификатор кодека/Информация : UTF-8 Plain Text
Язык : English
Default : Нет
Forced : Нет
Statistics Tags Issue : mkvmerge v7.7.0 ('Six Voices') 32bit built on Feb 28 2015 23:23:00 2015-04-11 23:07:58 / mkvmerge v5.3.0 ('I could have danced') built on Feb 9 2012 10:38:07 2016-11-01 23:29:00
FromStats_BitRate : 56
FromStats_Duration : 01:29:35.244000000
FromStats_FrameCount : 1031
FromStats_StreamSize : 38194
Download / Скачать

Хотите скачать бесплатно? Зарегистрируйтесь на сайте (ссылка на регистрацию). Pirat.ca - самый быстрый торрент трекер в рунете!

Как скачивать  ·   Что такое торрент  ·   Рейтинг и ограничения

Показать сообщения:    
Ответить на тему

Текущее время: Сегодня 22:01

Часовой пояс: GMT + 4



Вы не можете начинать темы
Вы не можете отвечать на сообщения
Вы не можете редактировать свои сообщения
Вы не можете удалять свои сообщения
Вы не можете голосовать в опросах
Вы не можете прикреплять файлы к сообщениям
Вы не можете скачивать файлы

▼ Вниз