ML
     
  Уважаемый Гость!
Вы можете поддержать проект и зарегистрироваться у наших партнеров - онлайн-стратегия MyLands. При регистрации в игре Вы получите код, который сможете активировать после регистрации на pirat.ca и получить 1000 дублонов.

Ваш код:
8b29d0f8cd61fe457e59e7df0aa1fab41a2b88b9
 
     

Последний единорог / The Last Unicorn (Жюль Басс, Артур Ранкин мл. / Jules Bass, Arthur Rankin Jr.) [1982 г., мультфильм, фэнтези, семейный, 0+, BDRip, 720p] Dub + Original (Eng) + Sub (Rus, Eng)

Ответить на тему
 
Автор
Сообщение

Пост 02-Ноя-2016 10:44

[Q] 

somik

Легенда

-Последний единорог / The Last Unicorn-- Производство: США, Япония, Великобритания, Германия (ФРГ), Incorporated Television Company (ITC), Rankin/Bass Productions, Topcraft
Режиссер: Жюль Басс, Артур Ранкин мл. / Jules Bass, Arthur Rankin Jr.
Жанр: мультфильм, фэнтези, семейный, 0+
Год выпуска: 1982 г.
Продолжительность: 01:33:03
Мировая премьера: 19 ноября 1982
Перевод: Профессиональный (полное дублирование)
Оригинальный аудиопоток: английский
Роли озвучивали: Алан Аркин, Джефф Бриджес, Миа Фэрроу, Кинэн Уинн, Пол Фрис, Кристофер Ли, Дон Мессик, Роберт Клэйн, Джек Лестер, Рене Обержонуа, Анджела Лэнсбери, Тэмми Граймз, Эд Пек, Нелли Беллфлауэр, Брава Теодор-Описание: В далекой волшебной стране в сиреневой роще жил юный прекрасный единорог, знающий секреты магии. Однажды он узнал, что все его сородичи исчезли с лица земли, и он может стать последним единорогом на свете.
И тогда единорог покинул свою рощу и отправился в долгое и опасное путешествие, чтобы разыскать и спасти своих сородичей. Много приключении пришлось ему пережить и многих опасных врагов довелось повстречать-свиноподобную ведьму Матушку Фортуну, шайку разбойников капитана Калли, злобного и жадного короля Хэггарда.
Но с помощью верных друзей — волшебника-недоучки Шмендрика, девушки Молли и прекрасного принца Лира -единорогу удалось одолеть огромного и страшного Красного Быка и освободить своих собратьев-единорогов.-Сэмпл IMDB КиноПоиск
Качество видео: BDRip
Контейнер: MKV
Стандарт разрешения: 720p
Видео кодек: MPEG4 AVC
Аудио кодек: AC3
Видео: 5900 Кбит/с, 1280x688, 23.976 кадр/с
Аудио: AC3, 2 ch, 192 Кбит/с, 48,0 КГц
Аудио #2: AC3, 6 ch, 448 Кбит/с, 48,0 КГц
Cубтитры: русские, английские
Формат субтитров: softsub (SSA/ASS)
Доп. информация о субтитрах: включаемые
Через некоторое время после выхода мультфильма, студия Topcraft (ответственная за анимацию «Последнего единорога») была нанята начинающим тогда режиссёром Хаяо Миядзаки для съемок фильма «Навсикая из долины ветров» (1984). Позже, в 1985, основными членами Topcraft и Миядзаки была основана Студия Ghibli.
Все песни к фильму были написаны группой America, создавшей целый альбом с одноименным названием The Last Unicorn.
Общее
Уникальный идентификатор : 232134582237997030289071134057650704799 (0xAEA37E8AD67F8FBA994AD82CC957D19F)
Полное имя : F:\Последний единорог (1982)\Poslednij Edinorog.1982.BDRip.720p.[pirat.ca].mkv
Формат : Matroska
Версия формата : Version 2
Размер файла : 4,24 Гбайт
Продолжительность : 1 ч. 33 м.
Общий поток : 6530 Кбит/сек
Дата кодирования : UTC 2016-11-02 06:29:38
Программа кодирования : mkvmerge v5.3.0 ('I could have danced') built on Feb 9 2012 10:38:07
Библиотека кодирования : libebml v1.2.3 + libmatroska v1.3.0
Обложка : Yes
Attachments : cover.jpg
Видео
Идентификатор : 1
Формат : AVC
Формат/Информация : Advanced Video Codec
Профиль формата : [email protected]
Параметр CABAC формата : Да
Параметр ReFrames формата : 9 кадров
Идентификатор кодека : V_MPEG4/ISO/AVC
Продолжительность : 1 ч. 33 м.
Битрейт : 5898 Кбит/сек
Ширина : 1280 пикселей
Высота : 688 пикселей
Соотношение сторон : 1,85:1
Режим частоты кадров : Постоянный
Частота кадров : 23,976 (24000/1001) кадра/сек
Цветовое пространство : YUV
Субдискретизация насыщенности : 4:2:0
Битовая глубина : 8 бит
Тип развёртки : Прогрессивная
Бит/(Пиксели*Кадры) : 0.279
Размер потока : 3,74 Гбайт (88%)
Заголовок : The Last Unicorn
Библиотека кодирования : x264 core 148 r2692 64f4e24
Настройки программы : cabac=1 / ref=9 / deblock=1:0:0 / analyse=0x3:0x133 / me=umh / subme=10 / psy=1 / psy_rd=1.00:0.00 / mixed_ref=1 / me_range=32 / chroma_me=1 / trellis=2 / 8x8dct=1 / cqm=0 / deadzone=21,11 / fast_pskip=1 / chroma_qp_offset=-2 / threads=3 / lookahead_threads=1 / sliced_threads=0 / nr=0 / decimate=1 / interlaced=0 / bluray_compat=0 / constrained_intra=0 / bframes=12 / b_pyramid=2 / b_adapt=2 / b_bias=0 / direct=3 / weightb=1 / open_gop=0 / weightp=2 / keyint=240 / keyint_min=23 / scenecut=40 / intra_refresh=0 / rc_lookahead=40 / rc=2pass / mbtree=1 / bitrate=5898 / ratetol=1.0 / qcomp=0.60 / qpmin=0 / qpmax=51 / qpstep=4 / cplxblur=20.0 / qblur=0.5 / vbv_maxrate=50000 / vbv_bufsize=62500 / nal_hrd=none / filler=0 / ip_ratio=1.40 / aq=1:1.00
Default : Да
Forced : Нет
Statistics Tags Issue : mkvmerge v9.2.0 ('Photograph') 32bit 2016-11-01 05:18:27 / mkvmerge v5.3.0 ('I could have danced') built on Feb 9 2012 10:38:07 2016-11-02 06:29:38
FromStats_BitRate : 5899179
FromStats_Duration : 01:32:52.942000000
FromStats_FrameCount : 133617
FromStats_StreamSize : 4109473158
Аудио #1
Идентификатор : 2
Формат : AC-3
Формат/Информация : Audio Coding 3
Расширение режима : CM (complete main)
Параметр Endianness формата : Big
Идентификатор кодека : A_AC3
Продолжительность : 1 ч. 33 м.
Вид битрейта : Постоянный
Битрейт : 192 Кбит/сек
Каналы : 2 канала
Расположение каналов : Front: L R
Частота : 48,0 КГц
Частота кадров : 31,250 кадров/сек (1536 spf)
Метод сжатия : С потерями
Размер потока : 128 Мбайт (3%)
Заголовок : DUB
Язык : Russian
Default : Да
Forced : Нет
Statistics Tags Issue : mkvmerge v9.2.0 ('Photograph') 32bit 2016-11-01 05:18:27 / mkvmerge v5.3.0 ('I could have danced') built on Feb 9 2012 10:38:07 2016-11-02 06:29:38
FromStats_BitRate : 192000
FromStats_Duration : 01:32:46.592000000
FromStats_FrameCount : 173956
FromStats_StreamSize : 133598208
Аудио #2
Идентификатор : 3
Формат : AC-3
Формат/Информация : Audio Coding 3
Расширение режима : CM (complete main)
Параметр Endianness формата : Big
Идентификатор кодека : A_AC3
Продолжительность : 1 ч. 33 м.
Вид битрейта : Постоянный
Битрейт : 448 Кбит/сек
Каналы : 6 каналов
Расположение каналов : Front: L C R, Side: L R, LFE
Частота : 48,0 КГц
Частота кадров : 31,250 кадров/сек (1536 spf)
Метод сжатия : С потерями
Размер потока : 298 Мбайт (7%)
Язык : English
Default : Нет
Forced : Нет
Statistics Tags Issue : mkvmerge v9.2.0 ('Photograph') 32bit 2016-11-01 05:18:27 / mkvmerge v5.3.0 ('I could have danced') built on Feb 9 2012 10:38:07 2016-11-02 06:29:38
FromStats_BitRate : 448000
FromStats_Duration : 01:33:03.616000000
FromStats_FrameCount : 174488
FromStats_StreamSize : 312682496
Текст #1
Идентификатор : 4
Формат : UTF-8
Идентификатор кодека : S_TEXT/UTF8
Идентификатор кодека/Информация : UTF-8 Plain Text
Язык : Russian
Default : Да
Forced : Нет
Statistics Tags Issue : mkvmerge v9.2.0 ('Photograph') 32bit 2016-11-01 05:18:27 / mkvmerge v5.3.0 ('I could have danced') built on Feb 9 2012 10:38:07 2016-11-02 06:29:38
FromStats_BitRate : 99
FromStats_Duration : 01:30:52.911000000
FromStats_FrameCount : 1041
FromStats_StreamSize : 67558
Текст #2
Идентификатор : 5
Формат : UTF-8
Идентификатор кодека : S_TEXT/UTF8
Идентификатор кодека/Информация : UTF-8 Plain Text
Язык : English
Default : Нет
Forced : Нет
Statistics Tags Issue : mkvmerge v9.2.0 ('Photograph') 32bit 2016-11-01 05:18:27 / mkvmerge v5.3.0 ('I could have danced') built on Feb 9 2012 10:38:07 2016-11-02 06:29:38
FromStats_BitRate : 56
FromStats_Duration : 01:29:35.244000000
FromStats_FrameCount : 1031
FromStats_StreamSize : 38194
Меню
00:00:00.000 : en:Good Luck to You/Main Titles
00:10:56.364 : en:The Butterfly's Songs and Story
00:17:23.042 : en:The Search Begins
00:24:03.692 : en:Carnival Captors
00:30:18.733 : en:Schmendrick Can See Her
00:36:32.064 : en:Mommy Knows Best
00:42:14.323 : en:Freedom for All
00:46:19.651 : en:Going on Together
00:50:29.651 : en:Bands of Outlaws
00:55:07.470 : en:Rescue... and Another Companion
00:59:23.560 : en:The Red Bull
01:05:01.355 : en:"What Have You Done?"
01:09:19.029 : en:In King Haggard's Castle
01:14:09.445 : en:Settling In
01:23:15.490 : en:Now That I'm a Woman
01:28:10.118 : en:The Cat's Riddle
01:33:03.369 : en:That's All I've Got to Say
Download / Скачать

Хотите скачать бесплатно? Зарегистрируйтесь на сайте (ссылка на регистрацию). Pirat.ca - самый быстрый торрент трекер в рунете!

Как скачивать  ·   Что такое торрент  ·   Рейтинг и ограничения

Показать сообщения:    
Ответить на тему

Текущее время: Сегодня 21:25

Часовой пояс: GMT + 4



Вы не можете начинать темы
Вы не можете отвечать на сообщения
Вы не можете редактировать свои сообщения
Вы не можете удалять свои сообщения
Вы не можете голосовать в опросах
Вы не можете прикреплять файлы к сообщениям
Вы не можете скачивать файлы

▼ Вниз