ML
     
  Уважаемый Гость!
Вы можете поддержать проект и зарегистрироваться у наших партнеров - онлайн-стратегия MyLands. При регистрации в игре Вы получите код, который сможете активировать после регистрации на pirat.ca и получить 1000 дублонов.

Ваш код:
4855957e17f50c5c1236a0f8c4492b2b0bba00a0
 
     

Последний единорог / The Last Unicorn (Жюль Басс / Jules Bass, Артур Ранкин мл. / Arthur Rankin Jr.) [1982 г., фэнтези, семейный, 0+, BDRip] MVO + Dub + Original (Eng) + Sub (Rus, Eng)

Ответить на тему
 
Автор
Сообщение

Пост 02-Ноя-2016 11:41

[Q] 

somik

Легенда

-Последний единорог / The Last Unicorn-- Производство: США, Великобритания, Япония, Германия (ФРГ)
Режиссер: Жюль Басс / Jules Bass, Артур Ранкин мл. / Arthur Rankin Jr.
Жанр: фэнтези, семейный, 0+
Год выпуска: 1982 г.
Продолжительность: 01:33:03
Мировая премьера: 19 ноября 1982
Перевод: Профессиональный (многоголосый, закадровый)
Перевод 2: Профессиональный (полное дублирование) [Ракурс (Екатеринбург-Арт) отдельно]
Оригинальный аудиопоток: английский
Роли озвучивали: Алан Аркин, Джеф Бриджес, Миа Ферроу Темми Гримс, Роберт Клейн, Анжела Ленсбери, Кристофер Ли-Описание: В далекой волшебной стране в сиреневой роще жил юный прекрасный единорог, знающий секреты магии. Однажды он узнал, что все его сородичи исчезли с лица земли, и он может стать последним единорогом на свете.
И тогда единорог покинул свою рощу и отправился в долгое и опасное путешествие, чтобы разыскать и спасти своих сородичей. Много приключении пришлось ему пережить и многих опасных врагов довелось повстречать-свиноподобную ведьму Матушку Фортуну, шайку разбойников капитана Калли, злобного и жадного короля Хэггарда.
Но с помощью верных друзей — волшебника-недоучки Шмендрика, девушки Молли и прекрасного принца Лира -единорогу удалось одолеть огромного и страшного Красного Быка и освободить своих собратьев-единорогов.-Сэмпл IMDB КиноПоиск
Качество видео: BDRip
Контейнер: AVI
Видео кодек: XviD
Аудио кодек: AC3
Видео: 704x384 (1.83:1), 23.976 fps, XviD build 62 ~1993 kbps avg, 0.31 bit/pixel
Аудио: 48 kHz, AC3 Dolby Digital, 2/0 (L,R) Surround Encoded ch, ~224 kbps
Аудио #2: AC3, 2 ch, 192 Кбит/с, 48,0 КГц | DUB |отдельно
Аудио #3: 48 kHz, AC3 Dolby Digital, 3/2 (L,C,R,l,r) + LFE ch, ~448.00 kbps avg | ENG |отдельно
Cубтитры: русские, английские
Формат субтитров: softsub (SRT)
Доп. информация о субтитрах: внешние
Через некоторое время после выхода мультфильма, студия Topcraft (ответственная за анимацию «Последнего единорога») была нанята начинающим тогда режиссёром Хаяо Миядзаки для съемок фильма «Навсикая из долины ветров» (1984). Позже, в 1985, основными членами Topcraft и Миядзаки была основана Студия Ghibli.
Все песни к фильму были написаны группой America, создавшей целый альбом с одноименным названием The Last Unicorn.
Сатурн, 1983 год
Номинации (1):
Лучший анимационный фильм
Лучший мультфильм из увиденных
Верите ли вы в мечту? Юный единорог, последний единорог, верила. Она знала, что где-то еще живут ее прекрасные сородичи. И вот она покинула свою безопасную рощу, шла месяцы, попадала в приключения, встретила друзей и наконец, любовь…
С первых минут фильма я погрузилась в незабываемую атмосферу, как будто заглянула в далекое детство, когда, раскрыв рот, застыла перед телевизором и смотрела, смотрела, смотрела… С тех пор многое забылось, но вот я наконец снова пересмотрела этот мультфильм.
Здесь нет таких страстей, как в Перл Харборе или Армагеддоне, однако последние 30 последних минут фильма я провели в слезах. После просмотра я задумалась о столь многом. Бывают мечты, которые заставляют нас парить, бывают мечты, которые приводят нас к гибели. Бывают еще настоящая дружба, преданность и любовь — это фильм напомнил мне еще раз.
Это старый мультфильм, сейчас он уже не может конкурировать с тем же Рататуем. Но Боже, как он красив! Красив в своей безыскусности, а когда смотришь на единорога становится просто больно от такой красоты — таким единорог и должен быть: диким, свободным и прекрасным…
Это очень глубокий, по-настоящему мудрый мультфильм. Музыка, история, от которой захватывает дух, замечательный конец, заставивший меня пролить немало слез — все просто великолепно! Смотрите обязательно!
10 из 10
Общее
Полное имя : F:\Последний единорог (1982)\Poslednij Edinorog.1982.BDRip.[pirat.ca]\Poslednij Edinorog.1982.BDRip.[pirat.ca].avi
Формат : AVI
Формат/Информация : Audio Video Interleave
Размер файла : 1,45 Гбайт
Продолжительность : 1 ч. 33 м.
Общий поток : 2227 Кбит/сек
Название фильма : Последний Единорог / The Last Unicorn (1982) BDRip
Программа кодирования : VirtualDubMod 1.5.10.2 (build 2542/release)
Авторское право : HQCLUB (http://hqclub.net)
Примечание : 04.04.2011
Видео
Идентификатор : 0
Формат : MPEG-4 Visual
Профиль формата : Advanced [email protected]
Параметр BVOP формата : 1
Параметр QPel формата : Нет
Параметр GMC формата : Без точки перехода
Параметр матрицы формата : Выборочная
Идентификатор кодека : XVID
Идентификатор кодека/Подсказка : XviD
Продолжительность : 1 ч. 33 м.
Битрейт : 1994 Кбит/сек
Ширина : 704 пикселя
Высота : 384 пикселя
Соотношение сторон : 1,85:1
Частота кадров : 23,976 (23976/1000) кадра/сек
Цветовое пространство : YUV
Субдискретизация насыщенности : 4:2:0
Битовая глубина : 8 бит
Тип развёртки : Прогрессивная
Метод сжатия : С потерями
Бит/(Пиксели*Кадры) : 0.308
Размер потока : 1,30 Гбайт (90%)
Библиотека кодирования : XviD 62
Аудио
Идентификатор : 1
Формат : AC-3
Формат/Информация : Audio Coding 3
Профиль формата : Dolby Digital
Расширение режима : CM (complete main)
Параметр Endianness формата : Big
Идентификатор кодека : 2000
Продолжительность : 1 ч. 32 м.
Вид битрейта : Постоянный
Битрейт : 224 Кбит/сек
Каналы : 2 канала
Расположение каналов : Front: L R
Частота : 48,0 КГц
Частота кадров : 31,250 кадров/сек (1536 spf)
Метод сжатия : С потерями
Размер потока : 149 Мбайт (10%)
Выравнивание : Разделение по промежуткам
Продолжительность промежутка : 42 мс. (1,00 видеокадр)
Время предзагрузки промежутка : 500 мс.
Download / Скачать

Хотите скачать бесплатно? Зарегистрируйтесь на сайте (ссылка на регистрацию). Pirat.ca - самый быстрый торрент трекер в рунете!

Как скачивать  ·   Что такое торрент  ·   Рейтинг и ограничения

Показать сообщения:    
Ответить на тему

Текущее время: Сегодня 06:13

Часовой пояс: GMT + 4



Вы не можете начинать темы
Вы не можете отвечать на сообщения
Вы не можете редактировать свои сообщения
Вы не можете удалять свои сообщения
Вы не можете голосовать в опросах
Вы не можете прикреплять файлы к сообщениям
Вы не можете скачивать файлы

▼ Вниз