ML
     
  Уважаемый Гость!
Вы можете поддержать проект и зарегистрироваться у наших партнеров - онлайн-стратегия MyLands. При регистрации в игре Вы получите код, который сможете активировать после регистрации на pirat.ca и получить 1000 дублонов.

Ваш код:
062e2babcc491faeb40d496cf9a498ac3df6cdd0
 
     

Элвин и бурундуки встречают оборотня / Alvin and the Chipmunks Meet the Wolfman (Кэти Кастилло / Kathi Castillo) [2000 г., мультфильм, мюзикл, ужасы, фэнтези, комедия, семейный, 0+, DVDRip] Dub + Original (Eng)

Ответить на тему
 
Автор
Сообщение

Пост 14-Ноя-2016 03:29

[Q] 

somik

Легенда

-Элвин и бурундуки встречают оборотня / Alvin and the Chipmunks Meet the Wolfman-- Производство: США, Universal Cartoon Studios, ...
Режиссер: Кэти Кастилло / Kathi Castillo
Жанр: мультфильм, мюзикл, ужасы, фэнтези, комедия, семейный, 0+
Год выпуска: 2000 г.
Продолжительность: 01:13:47
Мировая премьера: 29 августа 2000
Перевод: Профессиональный (полное дублирование) [R5]
Оригинальный аудиопоток: английский
Роли озвучивали: Росс Багдасарян мл., Дженис Карман Морис ЛаМарш, Мириам Флинн, Роб Полсен, Эйприл Уинчелл, Элизабет Дэйли, Фрэнк Уэлкер, Доди Гудмен, Дэбби
Роли дублировали: Диомид Виноградов, Лариса Некипелова, Ольга Шорохова, Дарья Фролова, Андрей Симанов, ...-Описание: Элвин пытается избавиться от кошмаров с участием оборотня. Ему берется помочь Дейв. Он убирает подальше все игрушки монстров и запрещает Элвин смотреть фильмы ужасов. В их школе проходит репетиция по книге ужасов Стивенсона. После школы Теодора кусает большая собака, как потом выяснилось — оборотень. Отважные бурундучки ищут способ помочь своему брату.-Сэмпл IMDB КиноПоиск
Качество видео: DVDRip
Контейнер: AVI
Видео кодек: XviD
Аудио кодек: AC3
Видео: 704x512 (1.38:1), 25 fps, XviD build 65 ~2393 kbps avg, 0.27 bit/pixel Audio
Аудио: 48 kHz, AC3 Dolby Digital, 2/0 (L,R) ch, ~224 kbps
Аудио #2: 48 kHz, AC3 Dolby Digital, 2/0 (L,R) ch, ~224 kbps
Cубтитры: отсутствуют
бщее
Полное имя : F:\Элвин и бурундуки встречают оборотня Alvin and the Chipmunks Meet the Wolfman (2000)\Alvin and the Chipmunks Meet the Wolfman.2000.DVDRip.[pirat.ca].avi
Формат : AVI
Формат/Информация : Audio Video Interleave
Размер файла : 1,47 Гбайт
Продолжительность : 1 ч. 13 м.
Общий поток : 2857 Кбит/сек
Программа кодирования : VirtualDubMod 1.5.10.2 (build 2542/release)
Видео
Идентификатор : 0
Формат : MPEG-4 Visual
Профиль формата : Advanced [email protected]
Параметр BVOP формата : 2
Параметр QPel формата : Нет
Параметр GMC формата : Без точки перехода
Параметр матрицы формата : Выборочная
Идентификатор кодека : XVID
Идентификатор кодека/Подсказка : XviD
Продолжительность : 1 ч. 13 м.
Битрейт : 2395 Кбит/сек
Ширина : 704 пикселя
Высота : 512 пикселей
Соотношение сторон : 1,375
Частота кадров : 25,000 кадров/сек
Цветовое пространство : YUV
Субдискретизация насыщенности : 4:2:0
Битовая глубина : 8 бит
Тип развёртки : Прогрессивная
Метод сжатия : С потерями
Бит/(Пиксели*Кадры) : 0.266
Размер потока : 1,23 Гбайт (84%)
Библиотека кодирования : XviD 65
Аудио #1
Идентификатор : 1
Формат : AC-3
Формат/Информация : Audio Coding 3
Расширение режима : CM (complete main)
Параметр Endianness формата : Big
Идентификатор кодека : 2000
Продолжительность : 1 ч. 13 м.
Вид битрейта : Постоянный
Битрейт : 224 Кбит/сек
Каналы : 2 канала
Расположение каналов : Front: L R
Частота : 48,0 КГц
Частота кадров : 31,250 кадров/сек (1536 spf)
Метод сжатия : С потерями
Размер потока : 118 Мбайт (8%)
Выравнивание : Разделение по промежуткам
Продолжительность промежутка : 40 мс. (1,00 видеокадр)
Время предзагрузки промежутка : 500 мс.
Аудио #2
Идентификатор : 2
Формат : AC-3
Формат/Информация : Audio Coding 3
Расширение режима : CM (complete main)
Параметр Endianness формата : Big
Идентификатор кодека : 2000
Продолжительность : 1 ч. 13 м.
Вид битрейта : Постоянный
Битрейт : 224 Кбит/сек
Каналы : 2 канала
Расположение каналов : Front: L R
Частота : 48,0 КГц
Частота кадров : 31,250 кадров/сек (1536 spf)
Метод сжатия : С потерями
Размер потока : 118 Мбайт (8%)
Выравнивание : Разделение по промежуткам
Продолжительность промежутка : 40 мс. (1,00 видеокадр)
Время предзагрузки промежутка : 500 мс.
Download / Скачать

Хотите скачать бесплатно? Зарегистрируйтесь на сайте (ссылка на регистрацию). Pirat.ca - самый быстрый торрент трекер в рунете!

Как скачивать  ·   Что такое торрент  ·   Рейтинг и ограничения

Пост 14-Ноя-2016 17:40 (спустя 14 часов)

Топик был перенесен из форума Мультфильмы (Трюм) в форум Зарубежные полнометражные мультфильмы
erchine
 
Показать сообщения:    
Ответить на тему

Текущее время: Сегодня 17:40

Часовой пояс: GMT + 4



Вы не можете начинать темы
Вы не можете отвечать на сообщения
Вы не можете редактировать свои сообщения
Вы не можете удалять свои сообщения
Вы не можете голосовать в опросах
Вы не можете прикреплять файлы к сообщениям
Вы не можете скачивать файлы

▼ Вниз