ML
     
  Уважаемый Гость!
Вы можете поддержать проект и зарегистрироваться у наших партнеров - онлайн-стратегия MyLands. При регистрации в игре Вы получите код, который сможете активировать после регистрации на pirat.ca и получить 1000 дублонов.

Ваш код:
69f316be79867e9bf99caee9682d20bb11964507
 
     

Рэтчет и Кланк: Галактические рейнджеры / Ratchet & Clank (Кевин Манро / Kevin Munroe, Джерика Клилэнд / Jericca Cleland) [2016 г., мультфильм, фантастика, боевик, комедия, приключения, BDRip-AVC] Dub [iTunes]

Ответить на тему
 
Автор
Сообщение

Пост 14-Ноя-2016 10:55

[Q] 

kroxaBOOM

Легенда

Рэтчет и Кланк: Галактические рейнджеры / Ratchet & Clank- Год выпуска: 2015
Производство: Гонконг, Канада, США.
Жанр: мультфильм, фантастика, боевик, комедия, приключения, семейный
Продолжительность: 01:34:06
Перевод: Дубляж [iTunes]
Навигация по главам: есть-Режиссер: Кевин Манро / Kevin Munroe, Джерика Клилэнд / Jericca Cleland
В ролях:

Пол Джаматти (Drek, озвучка), Джон Гудман (Grimroth, озвучка), Белла Торн (Cora, озвучка), Розарио Доусон (Elaris, озвучка), Джим Уорд (Qwark, озвучка), Армин Шимерман (Dr. Nefarious, озвучка), Винсент Тонг (Brax / Solana Trooper, озвучка), Эндрю Каунден (Zed / Blarg, озвучка), Джеймс Арнольд Тейлор (Ratchet, озвучка), Дэвид Кэй (Clank, озвучка), Сильвестр Сталлоне (Victor, озвучка), Ли Токар (Mr. Micron, озвучка)-О фильме: Большеухий ловкач Рэтчет всегда мечтал присоединиться к Галактическим космическим рейнджерам, но самовлюбленный супергерой Капитан Кварк не принимает его в команду. И все же, когда робот Кланк приносит весть о коварном плане злодея Дрека из расы Блэрг создать новую планету для своего вида, предварительно избавившись от рейнджеров и уничтожив Солнечную систему, миссия по спасению галактики ложится именно на пушистые плечи остряка Рэтчета. А металлический Кланк становится его верным спутником и помощником.-Бюджет: $20 000 000- -Качество: BDRip-AVC
Формат: MKV
Видео: AVC, 984x410 (2.40:1), 1619 kbps, 23,976 fps, 0,167 bpp
Аудио: русский / AC3 / 5.1 / 48 kHz / 384 kbps / 16 bit
General
Unique ID : 180875235402490207076232032924703156488 (0x88134D9EE820ED3B8AA41FFD24306908)
Complete name : G:\Раздачи2\Retchet.i.Klank.Galakticheskiye.Reyndzhery.2016.RUS.BDRip.x264.-HELLYWOOD.mkv
Format : Matroska
Format version : Version 4 / Version 2
File size : 1.32 GiB
Duration : 1 h 34 min
Overall bit rate : 2 004 kb/s
Movie name : Ratchet & Clank (2016)
Encoded date : UTC 2016-10-31 17:51:15
Writing application : mkvmerge v5.9.0 ('On The Loose') built on Dec 15 2012 16:39:58
Writing library : libebml v1.3.0 + libmatroska v1.4.0
Video
ID : 1
Format : AVC
Format/Info : Advanced Video Codec
Format profile : [email protected]
Format settings, CABAC : Yes
Format settings, ReFrames : 12 frames
Codec ID : V_MPEG4/ISO/AVC
Duration : 1 h 34 min
Bit rate : 1 619 kb/s
Width : 984 pixels
Height : 410 pixels
Display aspect ratio : 2.40:1
Frame rate mode : Constant
Frame rate : 23.976 FPS
Color space : YUV
Chroma subsampling : 4:2:0
Bit depth : 8 bits
Scan type : Progressive
Bits/(Pixel*Frame) : 0.167
Stream size : 1.04 GiB (79%)
Title : potroks
Writing library : x264 core 146 r2538 121396c
Encoding settings : cabac=1 / ref=12 / deblock=1:-1:-1 / analyse=0x3:0x113 / me=umh / subme=11 / psy=1 / psy_rd=1.05:0.15 / mixed_ref=1 / me_range=48 / chroma_me=1 / trellis=2 / 8x8dct=1 / cqm=0 / deadzone=21,11 / fast_pskip=0 / chroma_qp_offset=-3 / threads=9 / lookahead_threads=2 / sliced_threads=0 / nr=0 / decimate=0 / interlaced=0 / bluray_compat=0 / constrained_intra=0 / bframes=13 / b_pyramid=2 / b_adapt=2 / b_bias=0 / direct=3 / weightb=1 / open_gop=0 / weightp=2 / keyint=240 / keyint_min=23 / scenecut=40 / intra_refresh=0 / rc_lookahead=60 / rc=2pass / mbtree=0 / bitrate=1619 / ratetol=1.0 / qcomp=0.70 / qpmin=0 / qpmax=69 / qpstep=4 / cplxblur=20.0 / qblur=0.5 / vbv_maxrate=14000 / vbv_bufsize=14000 / nal_hrd=none / filler=0 / ip_ratio=1.40 / pb_ratio=1.30 / aq=1:0.80
Language : English
Default : Yes
Forced : No
Audio
ID : 2
Format : AC-3
Format/Info : Audio Coding 3
Mode extension : CM (complete main)
Format settings, Endianness : Big
Codec ID : A_AC3
Duration : 1 h 34 min
Bit rate mode : Constant
Bit rate : 384 kb/s
Channel(s) : 6 channels
Channel positions : Front: L C R, Side: L R, LFE
Sampling rate : 48.0 kHz
Frame rate : 31.250 FPS (1536 spf)
Bit depth : 16 bits
Compression mode : Lossy
Stream size : 258 MiB (19%)
Title : Dub | DD 5.1 @ 384 kbps - iTunes
Language : Russian
Default : Yes
Forced : No
Menu
00:00:00.000 : en:(01)00:00:00:000
00:03:12.525 : en:(02)00:03:12:525
00:08:50.821 : en:(03)00:08:50:821
00:14:23.111 : en:(04)00:14:23:111
00:17:40.057 : en:(05)00:17:40:057
00:21:49.891 : en:(06)00:21:49:891
00:26:15.781 : en:(07)00:26:15:781
00:31:23.338 : en:(08)00:31:23:338
00:36:22.847 : en:(09)00:36:22:847
00:41:23.938 : en:(10)00:41:23:938
00:46:11.184 : en:(11)00:46:11:184
00:49:30.342 : en:(12)00:49:30:342
00:53:28.246 : en:(13)00:53:28:246
00:57:00.458 : en:(14)00:57:00:458
01:01:44.742 : en:(15)01:01:44:742
01:07:42.766 : en:(16)01:07:42:766
01:11:16.729 : en:(17)01:11:16:729
01:18:47.470 : en:(18)01:18:47:470
01:23:20.119 : en:(19)01:23:20:119
01:27:53.810 : en:(20)01:27:53:810
01:34:07.099 : en:(21)01:34:07:099
Download / Скачать

Хотите скачать бесплатно? Зарегистрируйтесь на сайте (ссылка на регистрацию). Pirat.ca - самый быстрый торрент трекер в рунете!

Как скачивать  ·   Что такое торрент  ·   Рейтинг и ограничения

kinstintin

Гроза морей

Пост 14-Ноя-2016 14:18 (спустя 3 часа)

[Q] 

Автору респект!!!
возьму посмотреть
[Профиль]  [ЛС] 

Пост 14-Ноя-2016 17:38 (спустя 3 часа)

Топик был перенесен из форума Мультфильмы (Трюм) в форум Зарубежные полнометражные мультфильмы
erchine
 
Показать сообщения:    
Ответить на тему

Текущее время: Сегодня 14:33

Часовой пояс: GMT + 4



Вы не можете начинать темы
Вы не можете отвечать на сообщения
Вы не можете редактировать свои сообщения
Вы не можете удалять свои сообщения
Вы не можете голосовать в опросах
Вы не можете прикреплять файлы к сообщениям
Вы не можете скачивать файлы

▼ Вниз