ML
     
  Уважаемый Гость!
Вы можете поддержать проект и зарегистрироваться у наших партнеров - онлайн-стратегия MyLands. При регистрации в игре Вы получите код, который сможете активировать после регистрации на pirat.ca и получить 1000 дублонов.

Ваш код:
4399ab8611ee7f8a22949d2ee7634160dd2db7e0
 
     

Полярные приключения / Polar Adventure (Лукас Цяо / Lucas Qiao) [2015 г., мультфильм, комедия, приключения, семейный, 6+, WEB-DL, 720p] Dub [iTunes]

Ответить на тему
 
Автор
Сообщение

Пост 18-Ноя-2016 18:14

[Q] 

somik

Легенда

-Полярные приключения / Polar Adventure-- Производство: Китай
Режиссер: Лукас Цяо / Lucas Qiao
Жанр: мультфильм, комедия, приключения, семейный, 6+
Год выпуска: 2015 г.
Продолжительность: 01:30:39
Мировая премьера: 1 октября 2015
Российская премьера: 4 августа 2016, «Парадиз»
Перевод: Профессиональный (полное дублирование) [МОСФИЛЬМ-мастер 2016]
Описание: Однажды в самое сердце мирной Антарктиды пришла беда. Жизнь Белого континента и его обитателей под угрозой гибели. Чтобы спасти пингвинов и защитить свой дом, маленькие друзья мужественно кидаются в бой. Дружба сделает их сильными. И ничто не сможет их остановить!
Наши герои: бык, заяц и пингвин, прилетают на самолёте в заснеженный континент Антарктида, чтобы проведать своих старых друзей и приятелей. Вновь прибывшие сразу замечают, что вокруг происходят странные вещи и всё это явно не к добру. Вскоре выясняется, виной всему приехавшие люди, которые хотят вместо девственно-чистого места, сделать загрязненный район, добывающий полезные ископаемые. Их интересует только финансовая выгода, которую они смогут получить от нового проекта. И под всё это разом избавиться от всех обитателей территории - местных пингвинов, уготовив при этом им бесперспективное и ужасное будущее. Всё же наши знакомые - Ури, Люк и Баффит, никогда не сдаются, они намерены помешать коварным планам людишек, спасти не только своих друзей, но и всё заполярье, сохранив его первозданность и чистоту. Ради этого они готовы вступить в неравный бой, объединить свои усилия и крепче сдружится, забыв о недавних разногласиях. Нет ничего на свете непреодолимого, если это делают верные и преданные делу друзья.-Сэмпл IMDB КиноПоиск
Качество видео: WEB-DL
Контейнер: MKV
Стандарт разрешения: 720p
Видео кодек: MPEG4 AVC
Аудио кодек: AC3
Видео: 3893 Кбит/с, [email protected], 25,000 кадров/сек
Аудио: AC3, 6 ch, 384 Кбит/с, 48,0 КГц
Cубтитры: отсутствуют
Общее
Уникальный идентификатор : 187216365626663012109963358467105816417 (0x8CD88F7A9126B48B9C0801A93348FF61)
Полное имя : F:\Полярные приключения Polar Adventure (2016)\Polarnye Priklychenia.2015.D.720p.WEB-DL.[pirat.ca].mkv
Формат : Matroska
Версия формата : Version 2
Размер файла : 2,76 Гбайт
Продолжительность : 1 ч. 30 м.
Общий поток : 4364 Кбит/сек
Дата кодирования : UTC 2016-11-18 13:50:19
Программа кодирования : mkvmerge v5.3.0 ('I could have danced') built on Feb 9 2012 10:38:07
Библиотека кодирования : libebml v1.2.3 + libmatroska v1.3.0
Видео
Идентификатор : 1
Формат : AVC
Формат/Информация : Advanced Video Codec
Профиль формата : [email protected]
Параметр CABAC формата : Нет
Параметр ReFrames формата : 2 кадра
Идентификатор кодека : V_MPEG4/ISO/AVC
Продолжительность : 1 ч. 30 м.
Битрейт : 3893 Кбит/сек
Ширина : 960 пикселей
Высота : 720 пикселей
Соотношение сторон : 16:9
Режим частоты кадров : Постоянный
Частота кадров : 25,000 кадров/сек
Цветовое пространство : YUV
Субдискретизация насыщенности : 4:2:0
Битовая глубина : 8 бит
Тип развёртки : Прогрессивная
Бит/(Пиксели*Кадры) : 0.225
Размер потока : 2,47 Гбайт (89%)
Язык : English
Default : Да
Forced : Нет
Цветовой диапазон : Limited
Основные цвета : BT.709
Характеристики трансфера : BT.709
Коэффициенты матрицы : BT.709
Аудио
Идентификатор : 2
Формат : AC-3
Формат/Информация : Audio Coding 3
Расширение режима : CM (complete main)
Параметр Endianness формата : Big
Идентификатор кодека : A_AC3
Продолжительность : 1 ч. 30 м.
Вид битрейта : Постоянный
Битрейт : 384 Кбит/сек
Каналы : 6 каналов
Расположение каналов : Front: L C R, Side: L R, LFE
Частота : 48,0 КГц
Частота кадров : 31,250 кадров/сек (1536 spf)
Метод сжатия : С потерями
Размер потока : 249 Мбайт (9%)
Язык : Russian
Default : Да
Forced : Да
Меню
00:00:00.000 : en:Глава 1
00:07:42.800 : en:Глава 2
00:11:47.279 : en:Глава 3
00:15:57.879 : en:Глава 4
00:21:49.838 : en:Глава 5
00:26:20.478 : en:Глава 6
00:32:19.918 : en:Глава 7
00:39:04.997 : en:Глава 8
00:47:07.636 : en:Глава 9
00:56:45.315 : en:Глава 10
01:01:59.554 : en:Глава 11
01:10:31.953 : en:Глава 12
01:17:06.192 : en:Глава 13
01:24:14.752 : en:Глава 14
Download / Скачать

Хотите скачать бесплатно? Зарегистрируйтесь на сайте (ссылка на регистрацию). Pirat.ca - самый быстрый торрент трекер в рунете!

Как скачивать  ·   Что такое торрент  ·   Рейтинг и ограничения

ss80

Флибустьер

36

Пост 18-Ноя-2016 20:47 (спустя 2 часа 32 минуты)

[Q] 

Спасибо!!!
[Профиль]  [ЛС] 
Показать сообщения:    
Ответить на тему

Текущее время: Сегодня 10:48

Часовой пояс: GMT + 4



Вы не можете начинать темы
Вы не можете отвечать на сообщения
Вы не можете редактировать свои сообщения
Вы не можете удалять свои сообщения
Вы не можете голосовать в опросах
Вы не можете прикреплять файлы к сообщениям
Вы не можете скачивать файлы

▼ Вниз