ML
     
  Уважаемый Гость!
Вы можете поддержать проект и зарегистрироваться у наших партнеров - онлайн-стратегия MyLands. При регистрации в игре Вы получите код, который сможете активировать после регистрации на pirat.ca и получить 1000 дублонов.

Ваш код:
ec3b26eefbcdc72e08e9fd33c6846bb2ca10f8b1
 
     

Битва за планету / Терра Battle for Terra (Аристоменис Тсирбас / Aristomenis Tsirbas) [2007 г., мультфильм, фантастика, боевик, приключения, военный, BDRip, 720p] Dub

Ответить на тему
 
Автор
Сообщение

Пост 21-Ноя-2016 19:24

[Q] 

somik

Легенда

-Битва за планету / Терра Battle for Terra-- Производство: США, MeniThings LLC - Snoot Entertainment
Режиссер: Аристоменис Тсирбас / Aristomenis Tsirbas
Жанр: мультфильм, фантастика, боевик, приключения, военный
Год выпуска: 2007 г.
Продолжительность: 01:19:39
Мировая премьера: 8 сентября 2007
Российская премьера: 14 мая 2009, «Люксор»
Перевод: Профессиональный (полное дублирование) [Лицензия]
Роли озвучивали: Сергей Степанченко, Вячеслав Гришечкин, Александр Клюквин, Александр Комлев, Евгений Стычкин, ...-Описание: Когда на планете Земля пересохли все реки, исчезли леса, а воздух превратился в пыль, люди исколесили Галактику, чтобы найти себе новый дом. Прекрасная планета Терра стала надеждой людей на спасение. Хитроумное устройство землян Терраформер должен превратить Терру в рай для людей и кошмар для коренных жителей. Катастрофа для террианцев неизбежна, они обречены.
Счет идет на дни и часы. И все бы шло по плану, если не одна случайность. Девочка с Терры Молу подбирает раненого пилота — землянина. Они становятся лучшими друзьями и вместе находят хитрый способ спасти Терру — последнюю живую планету Галактики. Они не подозревают, что сразу окажутся в центре бурных, опасных, веселых и удивительных событий…-Сэмпл IMDB КиноПоиск
Качество видео: BDRip
Контейнер: MKV
Стандарт разрешения: 720p
Видео кодек: MPEG4 AVC
Аудио кодек: AC3
Видео: 1280x544, 3300 Kbps, 23,976 fps
Аудио: AC3, 6 ch, 448 kbps, 48 kHz
Cубтитры: отсутствуют
С латыни «Terra» переводится как «Земля».
Замечательный фильм
Не понимаю тех, кому фильм не понравился… Думаю, случись что-то подобное, именно они были бы теми, кто отправил на Терру первые бомбы… Не в обиду будет сказано.
Конечно же, у фильма есть свои недочёты, на которые, впрочем, можно (если совсем припечёт) спокойно закрыть глаза. Здесь и робот-помощник (кто смотрел, вспомнит про WALL-E), и сравнительно небогатая на первосортные текстуры графика, и линейный сюжет… Здесь нет сверхяркого юмора, нет пошлости, секса, банальной и всем привычной крови — тоже нет (думаю, именно за эти «недостатки» фильм многим не полюбился). Но есть главное, чего нет во многих других фильмах — смысл.
«Столь простая мысль о том, что все можно решить мирным путем, была развернута на весь фильм, потребовав жертвы сотен жизней, бессмысленной жертвы, ибо стоило начать с переговоров, и ничего подобного бы не случилось…»
С самых первых минут начинаешь удивляться, восхищаться и переживать, думать. Это правда хорошо, если не есть главное в любом фильме такого плана.
Фильм оставил исключительно приятные впечатления. Музыка, свет, графика — всё это направлено на отработку основной идеи фильма. Удалось. Обязательно пересмотрю…
10 из 10
Общее
Уникальный идентификатор : 238145091332383037243622324254067105934 (0xB329138528915282B944650D32D3A08E)
Полное имя : F:\Битва за планету Терра Battle for Terra (2007)\БИТВА ЗА ПЛАНЕТУ ТЕРРА.2007.720.BDRip.[pirat.ca].mkv
Формат : Matroska
Версия формата : Version 4 / Version 2
Размер файла : 2,09 Гбайт
Продолжительность : 1 ч. 19 м.
Общий поток : 3748 Кбит/сек
Дата кодирования : UTC 2014-07-15 05:42:35
Программа кодирования : mkvmerge v6.9.1 ('Blue Panther') 64bit built on Apr 18 2014 18:23:38
Библиотека кодирования : libebml v1.3.0 + libmatroska v1.4.1
Видео
Идентификатор : 1
Формат : AVC
Формат/Информация : Advanced Video Codec
Профиль формата : [email protected]
Параметр CABAC формата : Да
Параметр ReFrames формата : 9 кадров
Идентификатор кодека : V_MPEG4/ISO/AVC
Продолжительность : 1 ч. 19 м.
Битрейт : 3300 Кбит/сек
Ширина : 1280 пикселей
Высота : 544 пикселя
Соотношение сторон : 2,35:1
Соотношение сторон в оригинале : 2,35:1
Режим частоты кадров : Постоянный
Частота кадров : 23,976 (24000/1001) кадра/сек
Частота кадров в оригинале : 23,976 (23976/1000) кадра/сек
Цветовое пространство : YUV
Субдискретизация насыщенности : 4:2:0
Битовая глубина : 8 бит
Тип развёртки : Прогрессивная
Бит/(Пиксели*Кадры) : 0.198
Размер потока : 1,79 Гбайт (86%)
Библиотека кодирования : x264 core 142 r2409kMod d6b4e63
Настройки программы : cabac=1 / ref=9 / deblock=1:0:0 / analyse=0x3:0x133 / me=umh / subme=10 / psy=1 / fade_compensate=0.00 / psy_rd=1.00:0.00 / mixed_ref=1 / me_range=32 / chroma_me=1 / trellis=2 / 8x8dct=1 / cqm=0 / deadzone=21,11 / fast_pskip=0 / chroma_qp_offset=-2 / threads=2 / lookahead_threads=1 / sliced_threads=0 / nr=0 / decimate=1 / interlaced=0 / bluray_compat=0 / constrained_intra=0 / fgo=0 / bframes=5 / b_pyramid=2 / b_adapt=1 / b_bias=0 / direct=3 / weightb=1 / open_gop=0 / weightp=2 / keyint=250 / keyint_min=25 / scenecut=40 / intra_refresh=0 / rc_lookahead=60 / rc=2pass / mbtree=1 / bitrate=3300 / ratetol=1.0 / qcomp=0.60 / qpmin=0 / qpmax=69 / qpstep=4 / cplxblur=20.0 / qblur=0.5 / ip_ratio=1.40 / aq=1:1.00
Default : Да
Forced : Нет
Аудио
Идентификатор : 2
Формат : AC-3
Формат/Информация : Audio Coding 3
Расширение режима : CM (complete main)
Параметр Endianness формата : Big
Идентификатор кодека : A_AC3
Продолжительность : 1 ч. 19 м.
Вид битрейта : Постоянный
Битрейт : 448 Кбит/сек
Каналы : 6 каналов
Расположение каналов : Front: L C R, Side: L R, LFE
Частота : 48,0 КГц
Частота кадров : 31,250 кадров/сек (1536 spf)
Метод сжатия : С потерями
Размер потока : 255 Мбайт (12%)
Default : Да
Forced : Нет
Download / Скачать

Хотите скачать бесплатно? Зарегистрируйтесь на сайте (ссылка на регистрацию). Pirat.ca - самый быстрый торрент трекер в рунете!

Как скачивать  ·   Что такое торрент  ·   Рейтинг и ограничения

ss80

Флибустьер

36

Пост 21-Ноя-2016 21:20 (спустя 1 час 56 минут)

[Q] 

Спасибо!!! Раздающему респект!
[Профиль]  [ЛС] 
Показать сообщения:    
Ответить на тему

Текущее время: Сегодня 03:45

Часовой пояс: GMT + 4



Вы не можете начинать темы
Вы не можете отвечать на сообщения
Вы не можете редактировать свои сообщения
Вы не можете удалять свои сообщения
Вы не можете голосовать в опросах
Вы не можете прикреплять файлы к сообщениям
Вы не можете скачивать файлы

▼ Вниз