ML
     
  Уважаемый Гость!
Вы можете поддержать проект и зарегистрироваться у наших партнеров - онлайн-стратегия MyLands. При регистрации в игре Вы получите код, который сможете активировать после регистрации на pirat.ca и получить 1000 дублонов.

Ваш код:
0af2e2107bc9b5dd5ac2c09f9fc25e1a77c43887
 
     

Ронал-варвар / Ronal Barbaren (Крестен Вестбьерг Андерсен. / Kresten Vestbjerg Andersen) [2011 г., Мультфильм, фэнтези, приключения., HDRip] Dub (Лицензия)

Ответить на тему
 
Автор
Сообщение

Пост 03-Фев-2012 22:03

[Q] 

Moln1a

Корсар

Ронал-варвар / Ronal Barbaren
Год выпуска: 2011
Мировая премьера: 29 сентября 2011
Российская премьера: 1 декабря 2011
Дата выхода DVD: 29 декабря 2011
Дата выхода Blu-Ray: 16 февраля 2012
Производство: Дания
Жанр: Мультфильм, фэнтези, приключения.
Продолжительность: 01:25:47
Перевод: Профессиональный (полное дублирование) [Лицензия]
Субтитры: отсутствуют
Режиссер: Крестен Вестбьерг Андерсен. / Kresten Vestbjerg Andersen
В ролях
Бриджитт Нильсен, Ларс Миккельсен, Луис Ломбарди, Ди Снайдер, Бен Бледсо, Пирс Крейвенс, Лерке Винтер Андерсен, Ларс Бом, Пребен Кристенсен, Оле Эрнст.
Описание
Ронал — самый нетипичный варвар на Земле. Его не интересуют ни битвы, ни завоевания, ни пиры. Больше всего на свете ему хочется, чтобы все просто оставили его в покое. Но судьба распоряжается иначе. Однажды злобный принц Вольказар, вождь враждебного племени, захватывает всех варваров в плен, чтобы принести их в жертву древним богам и обрести власть над миром. На свободе остается лишь Ронал. И теперь ему вместе с безалаберным бардом Алибером, мускулистой девой-воительницей Зандрой и эльфом-метросексуалом Эльриком предстоит пройти множество испытаний, чтобы освободить свой народ, обрести веру в себя и… найти любовь.
Сэмпл , КиноПоиск
Источник/Качество: HDRip
Формат: AVI
Видео кодек: XviD
Аудио кодек: AC3
Видео: 720x304 (2.37:1), 23.976 fps, XviD MPEG-4 ~1730 kbps avg, 0.33 bit/pixel
Аудио: 48 kHz, AC3 Dolby Digital, 3/2 (L,C,R,l,r) + LFE ch, ~448.00 kbps avg
Формат : AVI
Формат/Информация : Audio Video Interleave
Размер файла : 1,37 Гбайт
Продолжительность : 1 ч. 29 м.
Общий поток : 2188 Кбит/сек
Программа кодирования : VirtualDubMod 1.5.10.2 (build 2540/release)
Библиотека кодирования : VirtualDubMod build 2540/release
Видео
Идентификатор : 0
Формат : MPEG-4 Visual
Профиль формата : Advanced [email protected]
Параметр BVOP формата : 2
Параметр QPel формата : Нет
Параметр GMC формата : 3 точки перехода
Параметр матрицы формата : Default (MPEG)
Режим смешивания : Сжатый битовый поток
Идентификатор кодека : XVID
Идентификатор кодека/Подсказка : XviD
Продолжительность : 1 ч. 29 м.
Битрейт : 1731 Кбит/сек
Ширина : 720 пикс.
Высота : 304 пикс.
Соотношение сторон : 2,35:1
Частота кадров : 23,976 кадр/сек
Цветовое пространство : YUV
Подвыборка цветности : 4:2:0
Битовая глубина : 8 бит
Тип развёртки : Прогрессивная
Метод сжатия : С потерями
Бит/(Пиксели*Кадры) : 0.330
Размер потока : 1,08 Гбайт (79%)
Библиотека кодирования : XviD 1.2.1 (UTC 2008-12-04)
Аудио
Идентификатор : 1
Формат : AC-3
Формат/Информация : Audio Coding 3
Расширение режима : CM (complete main)
Идентификатор кодека : 2000
Продолжительность : 1 ч. 29 м.
Вид битрейта : Постоянный
Битрейт : 448 Кбит/сек
Каналы : 6 каналов
Расположение каналов : Front: L C R, Side: L R, LFE
Частота : 48,0 КГц
Битовая глубина : 16 бит
Метод сжатия : С потерями
Задержка видео : 40 мс.
Размер потока : 286 Мбайт (20%)
Выравнивание : Разделение по промежуткам
Продолжительность промежутка : 42 мс. (1,00 видеокадр)
Время предзагрузки промежутка : 500 ms
Download / Скачать

Хотите скачать бесплатно? Зарегистрируйтесь на сайте (ссылка на регистрацию). Pirat.ca - самый быстрый торрент трекер в рунете!

Как скачивать  ·   Что такое торрент  ·   Рейтинг и ограничения



Последний раз редактировалось: Moln1a (2012-02-03 22:52), всего редактировалось 1 раз

Андря

8410

Пост 03-Фев-2012 22:37 (спустя 33 минуты)

[Q] 

хороший мульт.

_________________
Като Тешекика
[Профиль]  [ЛС] 

Пост 03-Фев-2012 22:55 (спустя 18 минут)

Топик был перенесен из форума Мультипликация в форум Зарубежные полнометражные мультфильмы

ara1205
 

rrtryytyew4

Морской Волк

32

Пост 04-Фев-2012 02:39 (спустя 4 часа)

[Q] 

Классный мульт
[Профиль]  [ЛС] 

Шкипер_Саныч

Морской Волк

Пост 04-Фев-2012 12:39 (спустя 9 часов)

[Q] 

Мультфильм безусловно впечатлил. Но на мой взгляд - он не совсем детский
[Профиль]  [ЛС] 

ksg111ban

Гроза морей

Пост 04-Фев-2012 13:01 (спустя 22 минуты)

[Q] 

Да уж расчитан явно не на детскую аудиторию.

_________________
[Профиль]  [ЛС] 

wirtual

Гроза морей

Пост 04-Фев-2012 15:30 (спустя 2 часа 28 минут)

[Q] 

оригинальные немеЦкие садомазо приколы
но раз поглядеть можно
Да уж расчитан явно не на детскую аудиторию.
это точно

_________________
не будешь делиться - останешься одноклеточным
[Профиль]  [ЛС] 

Grand Zero

Морской Волк

Пост 04-Фев-2012 16:05 (спустя 35 минут)

[Q] 

да классный фильм спасибо
[Профиль]  [ЛС] 

fantome

Лоцман

Пост 11-Фев-2012 11:55 (спустя 6 дней)

[Q] 

Спасибо
[Профиль]  [ЛС] 

днепрянен

Морской Волк

Пост 05-Мар-2012 01:37 (спустя 22 дня)

[Q] 

[Профиль]  [ЛС] 

just_Seva

Штурман

Пост 10-Мар-2012 18:53 (спустя 5 дней)

[Q] 

[Профиль]  [ЛС] 

Bozo

Флибустьер

Пост 06-Май-2012 19:14 (спустя 1 месяц 27 дней)

[Q] 

[Профиль]  [ЛС] 

xxx4ervxxx

Морской Волк

Пост 13-Июл-2012 11:44 (спустя 2 месяца 6 дней)

[Q] 

[Профиль]  [ЛС] 

Алоизий

Флибустьер

Пост 05-Ноя-2012 11:28 (спустя 3 месяца 22 дня)

[Q] 

[Профиль]  [ЛС] 

днепрянен

Морской Волк

Пост 23-Ноя-2013 22:55 (спустя 1 год)

[Q] 

Обалденный мультик!!!
[Профиль]  [ЛС] 

rayven

Морской Волк

Пост 12-Янв-2014 12:17 (спустя 1 месяц 18 дней)

[Q] 

отличный мульт, спасибо anime75
[Профиль]  [ЛС] 

alienn

Мичман

Пост 13-Авг-2014 23:56 (спустя 7 месяцев 1 день)

[Q] 

Где дорожка сабвуфера?
[Профиль]  [ЛС] 

shalonina

Гроза морей

Пост 26-Авг-2014 16:32 (спустя 12 дней)

[Q] 

Вы лучшие!

_________________
[Профиль]  [ЛС] 

linko22

Шкипер

Пост 26-Окт-2014 00:43 (спустя 1 месяц 30 дней)

[Q] 

Ржал! Детям не показывать, по крайней мере первые 5 минут, а потом от вопросов не отобьёшься.
У кого есть контакты сценариста и режиссёра? Я хочу такую же траву купить :)
Добавлено спустя 23 секунды:
Ну а вообще - самое классное это перевод, молодцы.
[Профиль]  [ЛС] 

neponimai

Морской Волк

Пост 07-Ноя-2014 22:06 (спустя 11 дней)

[Q] 

Спасибо!!! Автору респект!!! посмотрим
[Профиль]  [ЛС] 

ANDOKU

Шкипер

Пост 08-Ноя-2014 17:38 (спустя 19 часов)

[Q] 

Лови бочку
[Профиль]  [ЛС] 
Показать сообщения:    
Ответить на тему

Текущее время: Сегодня 00:08

Часовой пояс: GMT + 4



Вы не можете начинать темы
Вы не можете отвечать на сообщения
Вы не можете редактировать свои сообщения
Вы не можете удалять свои сообщения
Вы не можете голосовать в опросах
Вы не можете прикреплять файлы к сообщениям
Вы не можете скачивать файлы

▼ Вниз