ML
     
  Уважаемый Гость!
Вы можете поддержать проект и зарегистрироваться у наших партнеров - онлайн-стратегия MyLands. При регистрации в игре Вы получите код, который сможете активировать после регистрации на pirat.ca и получить 1000 дублонов.

Ваш код:
73640f24f8a0f579e128ea7346fd2db2b1009143
 
     

Роботы / Robots (Карлос Салдана / Carlos Saldanha) [2005 г., мультфильм, фантастика, мелодрама, комедия, HDRip] Dub (Лицензия)

Ответить на тему
 
Автор
Сообщение

Пост 05-Фев-2012 11:27

[Q] 

ara1205

Роботы / Robots
Год выпуска: 2005
Мировая премьера: 10 марта 2005
Российская премьера: 17 марта 2005
Релиз на Blu-Ray: 13 мая 2010
Производство: США
Жанр: мультфильм, фантастика, мелодрама, комедия
Продолжительность: 01:29:47
Перевод: Профессиональный (полное дублирование) [Лицензия]
Субтитры: отсутствуют
Режиссер: Карлос Салдана / Carlos Saldanha
Роли дублировали:
Сергей Стиллавин, Александр Котов, Олег Куценко, Дмитрий Филимонов, Алексей Борзунов и др.
Описание
Действие фильма разворачивается в мире, населенном исключительно роботами. Как и в мире людей у них есть своя социальная лестница, свои герои и изгои. Молодой гений Родни мечтает сделать мир роботов лучше. А еще ему очень нравится одна молоденькая сексапильная роботша Каппи. Но на пути всех его планов стоит ведущий дизайнер роботов Биг Велд, принадлежащий к тому же сословию, что и Каппи…
IMDB , КиноПоиск
Источник/Качество: HDRip
Формат: AVI
Видео кодек: XviD
Аудио кодек: MP3
Видео: 624x336 (1.86:1), 23.976 fps, XviD build 63, 1022 kbps avg, 0.20 bit/pixel
Аудио: 48.0 KHz, 2 ch, 128kbps
General
Complete name : C:\Users\Юличка\Documents\пиратка\Роботы\Roboty_745_[pirat.ca].avi
Format : AVI
Format/Info : Audio Video Interleave
File size : 745 MiB
Duration : 1h 29mn
Overall bit rate : 1 160 Kbps
Writing application : VirtualDubMod 1.5.10.3 | www.virtualdub-fr.org || (build 2550/release)
Writing library : VirtualDubMod build 2550/release
Video
Format : MPEG-4 Visual
Format profile : Streaming [email protected]
Format settings, BVOP : Yes
Format settings, QPel : No
Format settings, GMC : No warppoints
Format settings, Matrix : Custom
Codec ID : XVID
Codec ID/Hint : XviD
Duration : 1h 29mn
Bit rate : 1 023 Kbps
Width : 624 pixels
Height : 336 pixels
Display aspect ratio : 1.857
Frame rate : 23.976 fps
Resolution : 24 bits
Colorimetry : 4:2:0
Scan type : Progressive
Bits/(Pixel*Frame) : 0.203
Stream size : 657 MiB (88%)
Writing library : XviD 63
Audio
Format : MPEG Audio
Format version : Version 1
Format profile : Layer 3
Codec ID : 55
Codec ID/Hint : MP3
Duration : 1h 29mn
Bit rate mode : Constant
Bit rate : 128 Kbps
Minimum bit rate : 128 Kbps
Channel(s) : 2 channels
Sampling rate : 48.0 KHz
Resolution : 16 bits
Stream size : 82.2 MiB (11%)
Alignment : Aligned on interleaves
Interleave, duration : 42 ms (1.00 video frame)
Interleave, preload duration : 504 ms
Writing library : LAME3.98r
Encoding settings : CBR
Download / Скачать

Хотите скачать бесплатно? Зарегистрируйтесь на сайте (ссылка на регистрацию). Pirat.ca - самый быстрый торрент трекер в рунете!

Как скачивать  ·   Что такое торрент  ·   Рейтинг и ограничения

Пост 05-Фев-2012 11:43 (спустя 15 минут)

Топик был перенесен из форума Мультипликация в форум Зарубежные полнометражные мультфильмы

zyyx
 

Aza73

Морской Волк

Пост 30-Мар-2013 16:10 (спустя 1 год 1 месяц)

[Q] 

спасибо раздающему!
[Профиль]  [ЛС] 

CHARLI2236

1089

Пост 24-Июл-2013 19:40 (спустя 3 месяца 25 дней)

[Q] 

4

_________________
[Профиль]  [ЛС] 

Atesh

Шкипер

Пост 16-Авг-2013 15:23 (спустя 22 дня)

[Q] 

Посмотрим что там... Спасибо!!!
[Профиль]  [ЛС] 

UncleFather

Легенда

Пост 17-Янв-2014 14:15 (спустя 5 месяцев)

[Q] 

Спасибо!!! Раздающему респект!
Неплохой мультфильм, однако бывает и лучше

_________________
Одни боялись Пью, другие - Билли Бонса, а меня... меня боялся сам Флинт
[Профиль]  [ЛС] 

linx69

Штурман

Пост 24-Янв-2014 22:31 (спустя 7 дней)

[Q] 

СУПЕР Советую всем Всем качать!!!
[Профиль]  [ЛС] 

Raspberry

Морской Волк

193

Пост 30-Янв-2014 14:49 (спустя 5 дней)

[Q] 

классный мульт Спасибо!!!

_________________
[Профиль]  [ЛС] 
Показать сообщения:    
Ответить на тему

Текущее время: Сегодня 22:30

Часовой пояс: GMT + 4



Вы не можете начинать темы
Вы не можете отвечать на сообщения
Вы не можете редактировать свои сообщения
Вы не можете удалять свои сообщения
Вы не можете голосовать в опросах
Вы не можете прикреплять файлы к сообщениям
Вы не можете скачивать файлы

▼ Вниз