ML
     
  Уважаемый Гость!
Вы можете поддержать проект и зарегистрироваться у наших партнеров - онлайн-стратегия MyLands. При регистрации в игре Вы получите код, который сможете активировать после регистрации на pirat.ca и получить 1000 дублонов.

Ваш код:
ba41f7961e0b4717aed6a401d955262223b8f6c4
 
     

Ронал-варвар / Ronal Barbaren (Крестен Вестбьерг Андерсен, Торбьорн Кристофферсен / Kresten Vestbjerg Andersen, Thorbjørn Christoffersen) [2011 г., мультфильм, фэнтези, приключения, HDRip-AVC] (Лицензия) [internal release]

Страницы :  1, 2  След.

Ответить на тему
 
Автор
Сообщение

Пост 05-Фев-2012 14:08

[Q] 

zyyx

--Ронал-варвар / Ronal Barbaren
«Неэпическая сила!»
-- Год выпуска: 2011
Мировая премьера: 29 сентября 2011
Российская премьера: 1 декабря 2011, «Вольга»
Дата выхода DVD: 29 декабря 2011, «Вольга»
Дата выхода Blu-Ray: 16 февраля 2012, «Вольга»
Производство: Дания
Жанр: мультфильм, фэнтези, приключения
Продолжительность: 01:29:18
Перевод: Профессиональный (полное дублирование) [Лицензия]
Субтитры: отсутствуют
Режиссер: Крестен Вестбьерг Андерсен, Торбьорн Кристофферсен, Филип Эйнштейн Липски / Kresten Vestbjerg Andersen, Thorbjørn Christoffersen, Philip Einstein Lipski
В ролях
Андерс Юль, Хади Ка-Куш, Лерке Винтер Андерсен, Брайан Лукке, Ларс Миккельсен, Питер Од, Ларс Бом, Оле Теструп, Пребен Кристенсен, Оле Эрнст
Описание
Ронал — самый нетипичный варвар на Земле. Его не интересуют ни битвы, ни завоевания, ни пиры. Больше всего на свете ему хочется, чтобы все просто оставили его в покое. Но судьба распоряжается иначе. Однажды злобный принц Вольказар, вождь враждебного племени, захватывает всех варваров в плен, чтобы принести их в жертву древним богам и обрести власть над миром. На свободе остается лишь Ронал. И теперь ему вместе с безалаберным бардом Алибером, мускулистой девой-воительницей Зандрой и эльфом-метросексуалом Эльриком предстоит пройти множество испытаний, чтобы освободить свой народ, обрести веру в себя и… найти любовь.
Источник/Качество: HDRip-AVC | Сэмпл
Формат: MKV
Видео кодек: H.264
Аудио кодек: AC3
Видео: 1040x432, 23.976 fps, 1957 Kbps
Аудио: 48.0 KHz, 6 ch, 384 Kbps
General
Complete name : F:\zyyx\Ronal.Barbaren.HDRip-AVC.zyyx.mkv
Format : Matroska
File size : 1.46 GiB
Duration : 1h 29mn
Overall bit rate : 2 342 Kbps
Encoded date : UTC 2012-02-04 23:40:36
Writing application : mkvmerge v4.6.0 ('Still Crazy After All These Years') сборка от Mar 13 2011 18:33:29
Writing library : libebml v1.2.0 + libmatroska v1.1.0
Video
ID : 1
Format : AVC
Format/Info : Advanced Video Codec
Format profile : [email protected]
Format settings, CABAC : Yes
Format settings, ReFrames : 16 frames
Muxing mode : Container [email protected]
Codec ID : V_MPEG4/ISO/AVC
Duration : 1h 29mn
Bit rate : 1 911 Kbps
Nominal bit rate : 1 957 Kbps
Width : 1 040 pixels
Height : 432 pixels
Display aspect ratio : 2.40:1
Frame rate : 23.976 fps
Resolution : 24 bits
Colorimetry : 4:2:0
Scan type : Progressive
Bits/(Pixel*Frame) : 0.177
Stream size : 1.19 GiB (82%)
Writing library : x264 core 114 r1924 08d04a4
Audio
ID : 2
Format : AC-3
Format/Info : Audio Coding 3
Codec ID : A_AC3
Duration : 1h 29mn
Bit rate mode : Constant
Bit rate : 384 Kbps
Channel(s) : 6 channels
Channel positions : Front: L C R, Surround: L R, LFE
Sampling rate : 48.0 KHz
Stream size : 245 MiB (16%)
Download / Скачать

Хотите скачать бесплатно? Зарегистрируйтесь на сайте (ссылка на регистрацию). Pirat.ca - самый быстрый торрент трекер в рунете!

Как скачивать  ·   Что такое торрент  ·   Рейтинг и ограничения

Пост 05-Фев-2012 14:23 (спустя 15 минут)

Топик был перенесен из форума Мультипликация в форум Новинки (HD|DVD|BD|TV|SAT|PDTV| - Rips)

ara1205
 

dimonpa

Гроза морей

Пост 05-Фев-2012 15:52 (спустя 1 час 43 минуты)

[Q] 

[Профиль]  [ЛС] 

leonid.

Флибустьер

Пост 05-Фев-2012 18:04 (спустя 2 часа 11 минут)

[Q] 

Спасибо !!!
[Профиль]  [ЛС] 

tu6enka

Флибустьер

Пост 05-Фев-2012 18:55 (спустя 51 минута)

[Q] 

[Профиль]  [ЛС] 

VIP

Шкипер

Пост 05-Фев-2012 19:10 (спустя 15 минут)

[Q] 

[Профиль]  [ЛС] 

leonid.

Флибустьер

Пост 05-Фев-2012 19:24 (спустя 13 минут)

[Q] 

скорости бы!плиз!
[Профиль]  [ЛС] 

ksg111ban

Гроза морей

Пост 05-Фев-2012 21:19 (спустя 1 час 54 минуты)

[Q] 

Прикольный мультик но не для детской аудитории

_________________
[Профиль]  [ЛС] 

RAliTur

Корсар

2802

Пост 06-Фев-2012 09:16 (спустя 11 часов)

[Q] 

[Профиль]  [ЛС] 

MOPRK

Флибустьер

Пост 06-Фев-2012 16:14 (спустя 6 часов)

[Q] 

Спасибо
[Профиль]  [ЛС] 

ravinmtv

Морской Волк

Пост 07-Фев-2012 13:39 (спустя 21 час)

[Q] 

[Профиль]  [ЛС] 

xprotm

Корсар

5

Пост 07-Фев-2012 20:01 (спустя 6 часов)

[Q] 

[Профиль]  [ЛС] 

Bogdan-grek

Шкипер

Пост 08-Фев-2012 00:19 (спустя 4 часа)

[Q] 

[Профиль]  [ЛС] 

sexy911

Шкипер

1

Пост 08-Фев-2012 01:13 (спустя 54 минуты)

[Q] 

Угарел над озвучкой

_________________
Подпись отключена за нарушение правил форума
[Профиль]  [ЛС] 

racom

2341

Пост 08-Фев-2012 01:36 (спустя 23 минуты)

[Q] 

мульт ржака полная! всем советую!

_________________
[Профиль]  [ЛС] 

SoSo4ek^Vikingaaa

Корсар

Пост 08-Фев-2012 12:51 (спустя 11 часов)

[Q] 

Веселый мульт, с первых минут прорывает))))
[Профиль]  [ЛС] 

jaytro

Морской Волк

Пост 11-Фев-2012 13:10 (спустя 3 дня)

[Q] 

давно так не ржал))) спасибо нашим актёрам за красочную озвучку))))))
[Профиль]  [ЛС] 

Пост 20-Фев-2012 10:58 (спустя 8 дней)

Топик был перенесен из форума Новинки (HD|DVD|BD|TV|SAT|PDTV| - Rips) в форум Зарубежные полнометражные мультфильмы

Skinwalker
 

d3m0n

Штурман

Пост 28-Фев-2012 14:30 (спустя 17 дней)

[Q] 

[Профиль]  [ЛС] 

Sensor

Корсар

1577

Пост 04-Мар-2012 11:12 (спустя 4 дня)

[Q] 


_________________
Если вы недовольны тем местом, которое вы занимаете, смените его! Вы же не дерево.
[Профиль]  [ЛС] 

mich76

Шкипер

Пост 11-Апр-2012 23:11 (спустя 1 месяц 7 дней)

[Q] 

с удовольствием скачал!!! спасибо за раздачу!
[Профиль]  [ЛС] 

celticross

Морской Волк

177

Пост 21-Апр-2012 15:18 (спустя 9 дней)

[Q] 

YEAAH!!!

_________________
Ave Pirat.ca!
[Профиль]  [ЛС] 

Kronus92

Шкипер

Пост 22-Апр-2012 15:08 (спустя 23 часа)

[Q] 

Мульт просто огонь!

_________________
[Профиль]  [ЛС] 

durst2011FP

Корсар

Пост 02-Май-2012 08:02 (спустя 9 дней)

[Q] 

До последнего не хотел смотреть этот мульт, а как начал оборжался как надо! Советую, мульт класс!

_________________
"Darkness covers all I see and all I touch
No feeling of pain just sorrow
My hand loses grip of the sword I held
and I turn to become a true shadow"
[Профиль]  [ЛС] 

DMC_BioS

Морской Волк

239

Пост 27-Май-2012 21:56 (спустя 25 дней)

[Q] 

Начали смотреть с женой, вроде ничего...после небольшой паузы, вернёмся и продолжим, но уже весело!!)
[Профиль]  [ЛС] 

osvax

Морской Волк

412

Пост 27-Май-2012 22:21 (спустя 25 минут)

[Q] 

[Профиль]  [ЛС] 

DMC_BioS

Морской Волк

239

Пост 28-Май-2012 00:04 (спустя 1 час 42 минуты)

[Q] 

АХАХАХАХ))))))))))))огонь!) ПОРАДОВАЛО ВООБЩЕ!))) хДДДД
[Профиль]  [ЛС] 

xxx4ervxxx

Морской Волк

Пост 13-Июл-2012 11:44 (спустя 1 месяц 16 дней)

[Q] 

[Профиль]  [ЛС] 

kelto

Шкипер

Пост 26-Июл-2012 07:42 (спустя 12 дней)

[Q] 

[Профиль]  [ЛС] 

igo-go

Корсар

Пост 31-Июл-2012 20:57 (спустя 5 дней)

[Q] 

эх , расширение не то
[Профиль]  [ЛС] 
Показать сообщения:    
Ответить на тему

Текущее время: Сегодня 14:45

Часовой пояс: GMT + 4



Вы не можете начинать темы
Вы не можете отвечать на сообщения
Вы не можете редактировать свои сообщения
Вы не можете удалять свои сообщения
Вы не можете голосовать в опросах
Вы не можете прикреплять файлы к сообщениям
Вы не можете скачивать файлы

▼ Вниз